img image001 image001 image001 image001 image001 image001 image001 image001 image001 image001 image001 image001 image001 image001 image001 image001
Planets Sun Sun Sun
Статистика раздачи
Автор: Nickolas3434 | Размер: 6.74 ГБ | Добавлен: 28 июн 2017
Раздают: 0    Качают: 2
Скачать торрент
Скачать торрент
Описание торрента

СообщениеДобавлено: 28 июн 2017 

Винсент. Нерассказанная история нашего дяди. Биография Винсента Ван Гога (7 серий из 7) / Vincent - The Untold Story of our Uncle, a biography the life & times of Vincent van Gogh
Оценка релиза: 
Перевод: Профессиональный (одноголосый), cубтитры: отсутствуют
Формат: DVB, MPEG-TS, H.264, MP2
Страна: Австралия, Mayfield Productions
Режиссер: Дай Кёндерс, Джон Кёндерс
Жанр: документальный, биография, искусство
Продолжительность: 7 x ~00:52:00
Год выпуска: 2012

Описание: Биография знаменитого художника Винсента Ван Гога (1853-1890) в воспоминаниях и письмах членов его семьи.
За свою жизнь Винсент Ван Гог создал более 800 картин и 700 рисунков в самых разных жанрах, однако ярче всего его талант проявился в пейзаже: именно в нем находил выход его холерический взрывной темперамент. В подвижно нервной живописной фактуре его картин отразилось душевное состояние художника: он страдал психической болезнью, которая в итоге привела его к самоубийству.
Его будут помнить всегда в ярких желтых лепестках его "Подсолнухов", сияющих звездах его "Звездной ночи", в золотисто-коричневых тонах земли на полотнах, изображающих крестьян за работой. Ради искусства он пожертвовал всем. И теперь искусство увековечило его.


Рейтинг MPAA -

Видео: 720х576 (4:3) анаморфированный (768x576), 25 fps, AVC ([email protected]) ~2304 kbps avg, 0.222 bit/pixel
Аудио: 48 kHz, MPEG Layer 2, 2 ch, ~192.00 kbps avg
(тех. данные всех серий идентичны)

Рип и постер: skorpionN

01. Винсент и его семья / Dedicated to Vincent by his Family
02. Адские муки / Fire & Brimstone
03. О красках и крестьянах / Of Peasants & Paints
04. Возвращение к свету / Back to the Right
05. О солнце и подсолнухах / Of Sun and Subflowers
06. Душа в муках / A Soul in Torment
07. Путешествие к звезде / The Journey to a Star

Общее
Идентификатор : 1 (0x1)
Полное имя : D:\Vincent_The Untold Story of our Uncle_a biography the life and times of Vincent van Gogh\01_Dedicated to Vincent by his Family.ts
Формат : MPEG-TS
Размер файла : 1001 Мбайт
Продолжительность : 53 м.
Режим общего битрейта : Переменный
Общий поток : 2628 Кбит/сек

Видео
Идентификатор : 4113 (0x1011)
Идентификатор меню : 1 (0x1)
Формат : AVC
Формат/Информация : Advanced Video Codec
Профиль формата :
Параметр CABAC формата : Да
Параметр ReFrames формата : 4 кадра
Идентификатор кодека : 27
Продолжительность : 53 м.
Вид битрейта : Переменный
Битрейт : 2304 Кбит/сек
Максимальный битрейт : 40,0 Мбит/сек
Ширина : 720 пикселей
Высота : 576 пикселей
Соотношение сторон : 4:3
Частота кадров : 25,000 кадров/сек
Стандарт вещания : PAL
Цветовое пространство : YUV
Субдискретизация насыщенности : 4:2:0
Битовая глубина : 8 бит
Тип развёртки : MBAFF
Метод сохранения типа развёртки : Чередующиеся поля
Порядок развёртки : Верхнее поле первое
Бит/(Пиксели*Кадры) : 0.222
Размер потока : 878 Мбайт (88%)

Аудио
Идентификатор : 4352 (0x1100)
Идентификатор меню : 1 (0x1)
Формат : MPEG Audio
Версия формата : Version 1
Профиль формата : Layer 2
Идентификатор кодека : 3
Продолжительность : 53 м.
Вид битрейта : Постоянный
Битрейт : 192 Кбит/сек
Каналы : 2 канала
Частота : 48,0 КГц
Метод сжатия : С потерями
Размер потока : 73,1 Мбайт (7%)
















   Похожие торренты   Торрент   Размер 
В этой теме нет новых непрочитанных сообщений. Картины: Винсент ван Гог / Vincent Van Gogh (2010) JPG

20 | 5

1.45 ГБ

В этой теме нет новых непрочитанных сообщений. Винсент / Vincent (1982) DVDRip

11 | 3

71.48 МБ

В этой теме нет новых непрочитанных сообщений. Святой Винсент / St. Vincent (2014) WEB-DLRip | L1

1896 | 53

1.38 ГБ

В этой теме нет новых непрочитанных сообщений. Винсент / Vincent [s01] (2005) DVDRip от GalVid

2 | 1

2.74 ГБ

В этой теме нет новых непрочитанных сообщений. Святой Винсент / St. Vincent (2014) HDRip | L 1

1398 | 56

2.05 ГБ

В этой теме нет новых непрочитанных сообщений. Аполлон - 11. Нерассказанная история / Apollo 11: The Untold Story (2006) SATRip

10 | 2

311.78 МБ

В этой теме нет новых непрочитанных сообщений. Муссолини: Нерассказанная история / Mussolini: The Untold Story (1985) DVDRip

5 | 4

1.94 ГБ




Вы не можете начинать темы
Вы не можете отвечать на сообщения
Вы не можете редактировать свои сообщения
Вы не можете удалять свои сообщения
Вы не можете добавлять вложения

Перейти:  
Для Мосгорсуда, Роскомнадзора и рекламодателей: mosgorsud-torrent[собачка]yandex.ru
 Вход
ppkBB3cker v.2 © 2008-2014 @ PPK
[ Time : 0.052s | 18 Queries | GZIP : Off ]

cron