img image001 image001 image001 image001 image001 image001 image001 image001 image001 image001 image001 image001 image001 image001 image001
Planets Sun Sun Sun
Статистика раздачи
Автор: Nickolas3434 | Размер: 6.93 ГБ | Добавлен: 28 янв 2018
Раздают: 0    Качают: 0
Скачать торрент
Скачать торрент
Описание торрента

СообщениеДобавлено: 28 янв 2018 

Информация о фильме
Название: Остров лемуров: Мадагаскар
Оригинальное: Island of Lemurs: Madagascar
Год выхода: 2014
Жанр: Документальный, природа, животные, флора, фауна, видовой
Режиссер: Дэвид Дуглас
О фильме:
Захватывающее приключение и потрясающие природные пейзажи – это награда для каждого, кто решит посмотреть документальную киноленту «Остров Лемуров: Мадагаскар». Мы перенесемся в райский уголок, расположенный посреди Индийского океана. Именно здесь находится родина маленьких и крайне забавных зверьков, которые известны людям под названием лемуры. Их развитие происходило в сильной изоляции от остального мира, так как остров не связан с материком уже тысячи лет. Но история их эволюции невообразимо интересна! Знали ли Вы, что эти милые зверушки с полосатыми хвостами появились ещё во времена динозавров? Животные смогли пережить ледниковый период и дожить до наших дней. Они эволюционировали и разделились на множество подвидов – порой встречаются особи размером всего лишь с руку взрослого человека. На веку лемуров было множество разных опасностей, но сегодняшняя угроза страшнее многих, и имя ей – человек. Многие браконьеры со всего мира съезжаются на Мадагаскар и ради собственного развлечения убивают милых животных. Кинолента расскажет зрителю об обыденной жизни лемуров и о том, что предпринимают защитники окружающей среды, чтобы спасти их от вымирания.

Страна: Канада, США, Мадагаскар
Студия: Warner Bros. Pictures, IMAX Corporation
Продолжительность: 00:40:39
Перевод: Профессиональный (двухголосый закадровый)
Файл
Кодек: MPEG-4 AVC
Качество: BDRemux 1080p
Видео: 1920х1080, 23,4 Мбит/с, 24 кадра/с
Звук: DTS, 6 каналов, 1026 Кбит/с
Общее
Уникальный идентификатор : 7290875463784347077430172026821157762 (0x57C2BE9E434F9D8521CF6BD66F02382)
Полное имя : C:UsersDVideosОСТРОВ ЛЕМУРОВ.mkv
Формат : Matroska
Версия формата : Version 4 / Version 2
Размер файла : 6,93 Гбайт
Продолжительность : 40 м. 39 с.
Режим общего битрейта : Переменный
Общий поток : 24,4 Мбит/сек
Название фильма : Island of Lemurs: Madagascar (2014)
Дата кодирования : UTC 2018-01-24 12:44:29
Программа кодирования : mkvmerge v20.0.0 ('I Am The Sun') 64-bit
Библиотека кодирования : libebml v1.3.5 + libmatroska v1.4.8
Обложка : Yes
Attachments : cover.jpg
Видео
Идентификатор : 1
Формат : AVC
Формат/Информация : Advanced Video Codec
Профиль формата : [email protected]
Настройки формата : CABAC / 2 Ref Frames
Параметр CABAC формата : Да
Параметр RefFrames формата : 2 кадра
Идентификатор кодека : V_MPEG4/ISO/AVC
Продолжительность : 40 м. 39 с.
Вид битрейта : Переменный
Битрейт : 23,4 Мбит/сек
Ширина : 1920 пикселей
Высота : 1080 пикселей
Соотношение сторон : 16:9
Режим частоты кадров : Постоянный
Частота кадров : 23,976 (24000/1001) кадра/сек
Цветовое пространство : YUV
Субдискретизация насыщенности : 4:2:0
Битовая глубина : 8 бит
Тип развёртки : Прогрессивная
Бит/(Пиксели*Кадры) : 0.470
Размер потока : 6,64 Гбайт (96%)
Default : Да
Forced : Нет
Аудио
Идентификатор : 2
Формат : DTS
Формат/Информация : Digital Theater Systems
Идентификатор кодека : A_DTS
Продолжительность : 40 м. 39 с.
Вид битрейта : Постоянный
Битрейт : 1026 Кбит/сек
Каналы : 6 каналов
Расположение каналов : Front: L C R, Side: L R, LFE
Частота : 48,0 КГц
Частота кадров : 93,750 кадра/сек (512 SPF)
Битовая глубина : 16 бит
Метод сжатия : С потерями
Размер потока : 298 Мбайт (4%)
Язык : Russian
Default : Да
Forced : Нет



   Похожие торренты   Торрент   Размер 
В этой теме нет новых непрочитанных сообщений. Остров лемуров: Мадагаскар / Island of Lemurs: Madagascar (2014) BDRip 1080p от NNNB

71 | 17

3.02 ГБ

В этой теме нет новых непрочитанных сообщений. Остров лемуров: Мадагаскар / Island of Lemurs: Madagascar (2014) BDRip 1080p от Ash61 | 3D-Video | halfOU | Рус.субтитры

84 | 19

6.04 ГБ

В этой теме нет новых непрочитанных сообщений. Остров лемуров: Мадагаскар / Island of Lemurs: Madagascar (2014) BDRip 1080p от Ash61 | 3D-Video | halfOU | Рус.субтитры

38 | 4

5.68 ГБ

В этой теме нет новых непрочитанных сообщений. Остров лемуров: Мадагаскар / Island of Lemurs: Madagascar (2014) HDRip-AVC от MAGNAT231

129 | 9

698.43 МБ

В этой теме нет новых непрочитанных сообщений. Мадагаскар. Зеленые сокровища Красного острова / Madagascar. Green Treasure of the Red island (2014) SATRip от torrentfilm

184 | 24

594.52 МБ

В этой теме нет новых непрочитанных сообщений. Мадагаскар: Ребятам о Зверятах / Madagascar. Island Mania (2007) PC | Лицензия

1126 | 54

290.29 МБ

В этой теме нет новых непрочитанных сообщений. Остров / The Island (2005) BDRemux 1080p | D, P, A

2 | 1

46.37 ГБ




Вы не можете начинать темы
Вы не можете отвечать на сообщения
Вы не можете редактировать свои сообщения
Вы не можете удалять свои сообщения
Вы не можете добавлять вложения

Перейти:  
Для Мосгорсуда, Роскомнадзора и рекламодателей: mosgorsud-torrent[собачка]yandex.ru
 Вход
ppkBB3cker v.2 © 2008-2014 @ PPK
[ Time : 0.035s | 20 Queries | GZIP : Off ]

cron