img image001 image001 image001 image001 image001 image001 image001 image001 image001 image001 image001 image001 image001 image001 image001
Planets Sun Sun Sun
Статистика раздачи
Автор: Nickolas3434 | Размер: 7.83 ГБ | Добавлен: 01 фев 2018
Раздают: 5    Качают: 4
Скачать торрент
Скачать торрент
Описание торрента

СообщениеДобавлено: 01 фев 2018 

Информация о фильме
Название: Белый медведь
Оригинальное: Ice Bear
Год выхода: 2012
Жанр: Документальный, природа, животные, фауна, видовой
Режиссер: Адам Рэветч, Сара Робертсон
О фильме:
Белый медведь находится на вершине пищевой пирамиды в Арктике. И вот сейчас этому хищнику, угрожает смертельная опасность. Его противник гораздо мощнее и безжалостнее чем кто либо, с кем ему приходилось сталкиваться прежде. Такого вызова Арктика ему ещё не бросала. Неужели после миллионов лет владычества надо льдами, белый медведь наконец встретил достойного соперника?

Страна: Канада
Продолжительность: 00:50:05
Перевод: Дублированный
Файл
Кодек: MPEG-4 AVC
Качество: BDRemux 1080p | D
Видео: 1920х1080, 21,9 Мбит/с, 24 кадра/с
Звук: AC-3, 6 каналов, 448 Кбит/с
Общее
Уникальный идентификатор : 99014644204546033310420765618252523119 (0x4A7D86DDB7A47ABF1B22C287615BA66F)
Полное имя : C:UsersDVideosБЕЛЫЙ МЕДВЕДЬ.mkv
Формат : Matroska
Версия формата : Version 4 / Version 2
Размер файла : 7,83 Гбайт
Продолжительность : 50 м. 5 с.
Режим общего битрейта : Переменный
Общий поток : 22,4 Мбит/сек
Дата кодирования : UTC 2018-01-27 21:47:32
Программа кодирования : mkvmerge v20.0.0 ('I Am The Sun') 64-bit
Библиотека кодирования : libebml v1.3.5 + libmatroska v1.4.8
Видео
Идентификатор : 1
Формат : AVC
Формат/Информация : Advanced Video Codec
Профиль формата : [email protected]
Настройки формата : CABAC / 4 Ref Frames
Параметр CABAC формата : Да
Параметр RefFrames формата : 4 кадра
Идентификатор кодека : V_MPEG4/ISO/AVC
Продолжительность : 50 м. 5 с.
Вид битрейта : Переменный
Битрейт : 21,9 Мбит/сек
Максимальный битрейт : 25,0 Мбит/сек
Ширина : 1920 пикселей
Высота : 1080 пикселей
Соотношение сторон : 16:9
Режим частоты кадров : Постоянный
Частота кадров : 23,976 (24000/1001) кадра/сек
Цветовое пространство : YUV
Субдискретизация насыщенности : 4:2:0
Битовая глубина : 8 бит
Тип развёртки : Прогрессивная
Бит/(Пиксели*Кадры) : 0.441
Размер потока : 7,67 Гбайт (98%)
Default : Да
Forced : Нет
Аудио
Идентификатор : 2
Формат : AC-3
Формат/Информация : Audio Coding 3
Идентификатор кодека : A_AC3
Продолжительность : 50 м. 5 с.
Вид битрейта : Постоянный
Битрейт : 448 Кбит/сек
Каналы : 6 каналов
Расположение каналов : Front: L C R, Side: L R, LFE
Частота : 48,0 КГц
Частота кадров : 31,250 кадров/сек (1536 SPF)
Битовая глубина : 16 бит
Метод сжатия : С потерями
Размер потока : 161 Мбайт (2%)
Язык : Russian
Default : Да
Forced : Нет



   Похожие торренты   Торрент   Размер 
В этой теме нет новых непрочитанных сообщений. Полярные медведи: Белый медведь / Polar Bears: Ice Bear (2012) Blu-Ray 1080p | D

0 | 0

17.39 ГБ

В этой теме нет новых непрочитанных сообщений. Полярные медведи / Polar Bears: A Summer Odyssey (2012) Blu-Ray Remux 1080p

3 | 5

8.55 ГБ

В этой теме нет новых непрочитанных сообщений. Полярные медведи / Polar Bears: A Summer Odyssey (2012) HDRip | P1

4 | 2

747.47 МБ

В этой теме нет новых непрочитанных сообщений. BBC: Живой мир. Полярные медведи и гризли / Polar bears & grizzlies - bears on top of the world (2007) DVDRip от ExKinoRay

7 | 4

702.22 МБ

В этой теме нет новых непрочитанных сообщений. Полярные медведи / Polar Bears: A Summer Odyssey (2012) BDRip-AVC от ExKinoRay

4 | 2

1.36 ГБ

В этой теме нет новых непрочитанных сообщений. Полярные медведи / Polar Bears: A Summer Odyssey (2012) BDRip 720p от NNNB

53 | 43

3.35 ГБ

В этой теме нет новых непрочитанных сообщений. Бесконечно белый медведь / Infinitely Polar Bear (2014) BDRemux 1080p от NNNB | Лицензия

148 | 12

16.96 ГБ




Вы не можете начинать темы
Вы не можете отвечать на сообщения
Вы не можете редактировать свои сообщения
Вы не можете удалять свои сообщения
Вы не можете добавлять вложения

Перейти:  
Для Мосгорсуда, Роскомнадзора и рекламодателей: mosgorsud-torrent[собачка]yandex.ru
 Вход
ppkBB3cker v.2 © 2008-2014 @ PPK
[ Time : 0.063s | 18 Queries | GZIP : Off ]

cron