img image001 image001 image001 image001 image001 image001 image001 image001 image001 image001 image001 image001 image001 image001 image001
Planets Sun Sun Sun
Статистика раздачи
Автор: Nickolas3434 | Размер: 12.61 ГБ | Добавлен: 01 фев 2018
Раздают: 4    Качают: 0
Скачать торрент
Скачать торрент
Описание торрента

СообщениеДобавлено: 01 фев 2018 

Информация о фильме
Название: Над вершинами
Оригинальное: Au-dela des Cimes
Год выхода: 2009
Жанр: Документальный, спорт, экстрим, альпинизм, путешествия, биография
Режиссер: Реми Тезье
В ролях: Катрин Дестивэль, Клэр Дестивель
О фильме:
Одна из лучших альпинисток мира Катрин Дестивэль совершит три впечатляющих восхождения на склоны Альп и возьмёт нас с собой! Мы посмотрим на горы глазами Катрин и постараемся понять: что же за страсть движет ею. Захватывающие съёмки, великолепные пейзажи и необъятность парящих скал. Катрин Дестивель - одна из самых известных скалолазок в мире. Её альпинистская биография полна потрясающих восхождений, соло, первопрохождений, экспедиций, побед в соревнованиях по скалолазанию в течение всех 80-х. Она совершила многочисленные восхождения по самым известным стенам, включая зимнее соло по Северной стене Эйгера всего лишь за 17 часов, или её знаменитый первопроход по восточной стене Пти Дрю, соло, занявшее 11 дней. Она прошла зимой все три самые знаменитые Северные стены в Альпах: Эйгер, Гран Жорас, и Маттерхорн, совершила скоростное прохождение м-та Бонатти на Пти Дрю всего лишь за 4 часа, поднялась на вершину Шиша Пангмы (8013 м).

Страна: Франция
Продолжительность: 01:15:51
Перевод: Профессиональный (многоголосый закадровый)
Файл
Кодек: MPEG-4 AVC
Качество: BDRemux 1080i | P
Видео: 1920х1080, 23,6 Мбит/с, 25 кадра/с
Звук: AC-3, 2 каналa, 192 Кбит/с
Общее
Уникальный идентификатор : 34584291538442152066572018686967287009 (0x1A04B1387899123ACAE71242B25A0CE1)
Полное имя : C:НАД ВЕРШИНАМИ.mkv
Формат : Matroska
Версия формата : Version 4 / Version 2
Размер файла : 12,6 Гбайт
Продолжительность : 1 ч. 15 м.
Общий поток : 23,8 Мбит/сек
Название фильма : Beyond The Summits (rip by SergeyS_PTI)
Дата кодирования : UTC 2018-01-29 11:11:35
Программа кодирования : mkvmerge v20.0.0 ('I Am The Sun') 64-bit
Библиотека кодирования : libebml v1.3.5 + libmatroska v1.4.8
Видео
Идентификатор : 1
Формат : VC-1
Профиль формата : [email protected]
Идентификатор кодека : V_MS/VFW/FOURCC / WVC1
Идентификатор кодека/Подсказка : Microsoft
Продолжительность : 1 ч. 15 м.
Битрейт : 23,6 Мбит/сек
Ширина : 1920 пикселей
Высота : 1080 пикселей
Соотношение сторон : 16:9
Режим частоты кадров : Постоянный
Частота кадров : 25,000 кадров/сек
Цветовое пространство : YUV
Субдискретизация насыщенности : 4:2:0
Битовая глубина : 8 бит
Тип развёртки : Чересстрочная
Порядок развёртки : Верхнее поле первое
Метод сжатия : С потерями
Бит/(Пиксели*Кадры) : 0.455
Размер потока : 12,5 Гбайт (99%)
Default : Да
Forced : Нет
Аудио
Идентификатор : 2
Формат : AC-3
Формат/Информация : Audio Coding 3
Идентификатор кодека : A_AC3
Продолжительность : 1 ч. 15 м.
Вид битрейта : Постоянный
Битрейт : 192 Кбит/сек
Каналы : 2 канала
Расположение каналов : Front: L R
Частота : 48,0 КГц
Частота кадров : 31,250 кадров/сек (1536 SPF)
Битовая глубина : 16 бит
Метод сжатия : С потерями
Размер потока : 104 Мбайт (1%)
Язык : Russian
Default : Да
Forced : Нет



   Похожие торренты   Торрент   Размер 
В этой теме нет новых непрочитанных сообщений. Над вершинами / Au-dela des Cimes (2009) Blu-Ray 1080p | P

0 | 0

14.52 ГБ

В этой теме нет новых непрочитанных сообщений. Убежище / Le Refuge (2009) BDRemux 1080i | P

17 | 7

18.22 ГБ

В этой теме нет новых непрочитанных сообщений. Виверн: Возрождение дракона / Wyvern (2009) BDRemux 1080i | P

12 | 44

15.44 ГБ

В этой теме нет новых непрочитанных сообщений. BBC: Йеллоустоун. Битва за жизнь / Yellowstone. Battle for life (2009) BDRemux 1080i | P1

15 | 6

30.79 ГБ

В этой теме нет новых непрочитанных сообщений. За стенами / Au Dela Des Murs [S01] (2016) HDTVRip | L1

2 | 0

1015.12 МБ

В этой теме нет новых непрочитанных сообщений. За стенами / Au dela des murs [01-03 из 03] (2016) HDTVRip 720p | L1

5 | 2

2.15 ГБ

В этой теме нет новых непрочитанных сообщений. Как соблазнять труднодоступных женщин / How to seduce difficult women (2009) BDRemux 1080i от HDClub | Лицензия

82 | 11

18.63 ГБ




Вы не можете начинать темы
Вы не можете отвечать на сообщения
Вы не можете редактировать свои сообщения
Вы не можете удалять свои сообщения
Вы не можете добавлять вложения

Перейти:  
Для Мосгорсуда, Роскомнадзора и рекламодателей: mosgorsud-torrent[собачка]yandex.ru
 Вход
ppkBB3cker v.2 © 2008-2014 @ PPK
[ Time : 0.061s | 18 Queries | GZIP : Off ]

cron