img image001 image001 image001 image001 image001 image001 image001 image001 image001 image001 image001 image001 image001 image001 image001
Planets Sun Sun Sun
Статистика раздачи
Автор: Nickolas3434 | Размер: 15.51 ГБ | Добавлен: 01 фев 2018
Раздают: 23    Качают: 7
Скачать торрент
Скачать торрент
Описание торрента

СообщениеДобавлено: 01 фев 2018 

Информация о фильме
Название: Золото Рейна - лица одной реки
Оригинальное: Rheingold: Gesichter eines Flusses
Год выхода: 2014
Жанр: Документальный, путешествия, природа, видовой
Режиссер: Петер Барделе, Лена Леонхардт
О фильме:
Рейн - центр европейской души. Крупнейшая и наиболее важная река континента. На протяжении тысяч лет, на своём пути от Альп до Северного моря он формирует уникальные культурные ландшафты, в которых люди и природа взаимно влияли друг на друга. На своём пути от массива Готтхард к морю, он пересекает шесть стран: Швейцарию, Австрию, Лихтенштейн, Германию, Францию и Нидерланды. На протяжении веков, Рейн разделял немцев в Германии и Франции. На протяжении почти 70 лет, он связывает эти две страны, тем не менее, Люксембург, Бельгия и Италия также находятся под его влиянием. "Золото Рейна - Лик реки" следует по маршруту реки исключительно с высоты птичьего полёта и представляет увлекательные панорамы центральной Европы, которые раскрываются в полную силу на большом экране. С высоты наш дом уже не то же самое: сверкающий Рейн напоминает Карибский бассейн, луга в районах выглядят как Серенгети. В сопровождении голоса актера Бена Беккера и музыкальных мотивов Рихарда Вагнера открываются новые неожиданные грани Рейна.

Страна: Германия
Продолжительность: 01:30:56
Перевод: Профессиональный (двухголосый закадровый)
Файл
Кодек: MPEG-4 AVC
Качество: BDRemux 1080p
Видео: 1920х1080, 22,9 Мбит/с, 24 кадра/с
Звук: DTS, 6 каналов, 1509 Кбит/с
Общее
Уникальный идентификатор : 296665154040969693276760430223182927275 (0xDF2FA15F6DBB9FD2F62C38F5993A15AB)
Полное имя : C:ЗОЛОТО РЕЙНА.mkv
Формат : Matroska
Версия формата : Version 4 / Version 2
Размер файла : 15,5 Гбайт
Продолжительность : 1 ч. 30 м.
Режим общего битрейта : Переменный
Общий поток : 24,4 Мбит/сек
Название фильма : Rheingold: Gesichter eines Flusses (2014)
Дата кодирования : UTC 2018-01-31 02:08:01
Программа кодирования : mkvmerge v20.0.0 ('I Am The Sun') 64-bit
Библиотека кодирования : libebml v1.3.5 + libmatroska v1.4.8
Видео
Идентификатор : 1
Формат : AVC
Формат/Информация : Advanced Video Codec
Профиль формата : [email protected]
Настройки формата : CABAC / 4 Ref Frames
Параметр CABAC формата : Да
Параметр RefFrames формата : 4 кадра
Идентификатор кодека : V_MPEG4/ISO/AVC
Продолжительность : 1 ч. 30 м.
Вид битрейта : Переменный
Битрейт : 22,9 Мбит/сек
Максимальный битрейт : 38,0 Мбит/сек
Ширина : 1920 пикселей
Высота : 1080 пикселей
Соотношение сторон : 16:9
Режим частоты кадров : Постоянный
Частота кадров : 25,000 кадров/сек
Цветовое пространство : YUV
Субдискретизация насыщенности : 4:2:0
Битовая глубина : 8 бит
Тип развёртки : MBAFF
Метод сохранения типа развёртки : Чередующиеся поля
Порядок развёртки : Верхнее поле первое
Бит/(Пиксели*Кадры) : 0.442
Размер потока : 14,6 Гбайт (94%)
Default : Да
Forced : Нет
Аудио
Идентификатор : 2
Формат : DTS
Формат/Информация : Digital Theater Systems
Идентификатор кодека : A_DTS
Продолжительность : 1 ч. 30 м.
Вид битрейта : Постоянный
Битрейт : 1509 Кбит/сек
Каналы : 6 каналов
Расположение каналов : Front: L C R, Side: L R, LFE
Частота : 48,0 КГц
Частота кадров : 93,750 кадра/сек (512 SPF)
Битовая глубина : 24 бит
Метод сжатия : С потерями
Размер потока : 982 Мбайт (6%)
Язык : Russian
Default : Да
Forced : Нет



   Похожие торренты   Торрент   Размер 
В этой теме нет новых непрочитанных сообщений. Золото Рейна - лица одной реки / Rheingold: Gesichter eines Flusses (2014) BDRip 1080p

12 | 2

11.1 ГБ

В этой теме нет новых непрочитанных сообщений. Золото Рейна - лица одной реки / Rheingold: Gesichter eines Flusses (2014) BDRip AVC

89 | 7

2.52 ГБ

В этой теме нет новых непрочитанных сообщений. Золото Рейна - лица одной реки / Rheingold: Gesichter eines Flusses (2014) HDRip от GeneralFilm | P2

75 | 4

1.33 ГБ

В этой теме нет новых непрочитанных сообщений. Золото Рейна - лица одной реки / Rheingold: Gesichter eines Flusses (2014) BDRip 720p

79 | 23

3.5 ГБ

В этой теме нет новых непрочитанных сообщений. Шутер от первого лица / FPS: First Person Shooter (2014) BDRemux 1080p от NovaLan

11 | 5

19.6 ГБ

В этой теме нет новых непрочитанных сообщений. Мир реки / Riverworld (2010) BDRemux 1080p от HDLine

0 | 3

38.49 ГБ

В этой теме нет новых непрочитанных сообщений. Без лица / Face/Off (1997) BDRemux 1080p | D, P, A

1 | 1

29.98 ГБ




Вы не можете начинать темы
Вы не можете отвечать на сообщения
Вы не можете редактировать свои сообщения
Вы не можете удалять свои сообщения
Вы не можете добавлять вложения

Перейти:  
Для Мосгорсуда, Роскомнадзора и рекламодателей: mosgorsud-torrent[собачка]yandex.ru
 Вход
ppkBB3cker v.2 © 2008-2014 @ PPK
[ Time : 0.055s | 21 Queries | GZIP : Off ]

cron