img image001 image001 image001 image001 image001 image001 image001 image001 image001 image001 image001 image001 image001 image001 image001
Planets Sun Sun Sun
Статистика раздачи
Автор: Снежана | Размер: 14.92 ГБ | Добавлен: 07 фев 2018
Раздают: 35    Качают: 13
Скачать торрент
Скачать торрент
Описание торрента

СообщениеДобавлено: 07 фев 2018 

Информация о фильме
Название: Тёмная сторона растений
Оригинальное: Die Tricks der Pflanzen
Год выхода: 2013
Жанр: Документальный, природа, флора, фауна, видовой
Режиссер: Стив Николалс

О фильме:
Эпизод 1. Хищные растения / Смертельные ловушки / Убийства и хаос
Недавно учёные доказали, что и многие другие растения являются плотоядными, о которых мы когда-либо и не подозревали. Добро пожаловать в мир помидоров убийц и кровавого картофеля. Даже наиболее известные хищные растения - росянка, мухоловка и кувшинчики – представлены с новой стороны объясняющей их поведение. Растениям-кувшинам иногда необходимо сформировать партнерские отношения с насекомыми. Так личинки комаров, живущие внутри Северной Америки кувшинов, разлагают утонувшую добычу, помогая её переварить. Но на острове Борнео, один гигантский кувшин сформировал замечательных отношениях с одним из видов муравьёв. Кувшин отращивает усики, для проживания муравьев, а они, питаясь утонувшими в жидкости кувшина насекомыми, также помогают растения переваривать добычу. За эти годы хищные растения показаны во многих научно-фантастических фильмах, но реальность оказывается гораздо более странной, чем вымысел.

Эпизод 2. Орхидеи / Гениальные соблазны / Секс и обман
Книга Дарвина «О происхождении видов» потрясла научный мир и далеко за его пределами. Тем не менее, его следующая книга, целиком была посвящена орхидеям, в которой он заполнил пробелы и уточнил свои революционные идеи. Орхидеи славятся неземной красотой, растёт ли они на высоте сотни метров в туманном лесу или вдоль обочин оживленных пригородных дорог. Но форма их экзотических цветов служит всего лишь одной цели - чтобы соблазнить опылителей. Многие используют секс в качестве приманки, выдавая свой цветок за женскую особь пчелы или осы. Орхидеи производят тысячи семян, которые настолько малы, что они не содержат запасы для прорастания. Они могут прорасти только с помощью конкретных видов грибов в почве. В прошлом, это создало проблемы выращивания орхидеи из семян, сейчас эта проблема решается в высокотехнологичных лабораториях. Это означает, что некоторые из самых редких растений могут быть вновь высажены в местах своего бывшего произрастания, но эти проекты осуществляются в таком секретности, что напоминают эпизоды из шпионского фильма.


Страна: Австрия
Продолжительность: 2 х 00:53:00
Перевод: Дублированный

Файл
Кодек: MPEG-4 AVC
Качество: BDRemux 1080p
Видео: 1920х1080, 19,9 Мбит/с, 25 кадр/с
Звук: AC-3, 2 канала, 192 Кбит/с

Общее
Уникальный идентификатор : 148201831892301649304908141039791357671 (0x6F7EA274310AE92E5D7B608D6A17BEE7)
Полное имя : D:КИНОТЁМНАЯ СТОРОНА РАСТЕНИЙЭПИЗОД 01.mkv
Формат : Matroska
Версия формата : Version 4 / Version 2
Размер файла : 7,46 Гбайт
Продолжительность : 53 м. 7 с.
Режим общего битрейта : Переменный
Общий поток : 20,1 Мбит/сек
Дата кодирования : UTC 2018-02-06 01:15:00
Программа кодирования : mkvmerge v20.0.0 ('I Am The Sun') 64-bit
Библиотека кодирования : libebml v1.3.5 + libmatroska v1.4.8

Видео
Идентификатор : 1
Формат : AVC
Формат/Информация : Advanced Video Codec
Профиль формата : [email protected]
Настройки формата : CABAC / 4 Ref Frames
Параметр CABAC формата : Да
Параметр RefFrames формата : 4 кадра
Идентификатор кодека : V_MPEG4/ISO/AVC
Продолжительность : 53 м. 7 с.
Вид битрейта : Переменный
Битрейт : 19,9 Мбит/сек
Максимальный битрейт : 35,0 Мбит/сек
Ширина : 1920 пикселей
Высота : 1080 пикселей
Соотношение сторон : 16:9
Режим частоты кадров : Постоянный
Частота кадров : 25,000 кадров/сек
Цветовое пространство : YUV
Субдискретизация насыщенности : 4:2:0
Битовая глубина : 8 бит
Тип развёртки : MBAFF
Метод сохранения типа развёртки : Чередующиеся поля
Порядок развёртки : Верхнее поле первое
Бит/(Пиксели*Кадры) : 0.384
Размер потока : 7,39 Гбайт (99%)
Default : Да
Forced : Нет

Аудио
Идентификатор : 2
Формат : AC-3
Формат/Информация : Audio Coding 3
Идентификатор кодека : A_AC3
Продолжительность : 53 м. 4 с.
Вид битрейта : Постоянный
Битрейт : 192 Кбит/сек
Каналы : 2 канала
Расположение каналов : Front: L R
Частота : 48,0 КГц
Частота кадров : 31,250 кадров/сек (1536 SPF)
Битовая глубина : 16 бит
Метод сжатия : С потерями
Размер потока : 72,9 Мбайт (1%)
Язык : Russian
Default : Да
Forced : Нет



   Похожие торренты   Торрент   Размер 
В этой теме нет новых непрочитанных сообщений. Тёмная сторона растений / Plants Behaving Badly (Стив Николалс) [2013, документальный, природа, флора и фауна, HDTVRip] DUB

2 | 0

1.41 ГБ

В этой теме нет новых непрочитанных сообщений. Тёмная сторона растений / Plants Behaving Badly (Стив Николалс) [2013, документальный, природа, флора и фауна, BDRip 720p] DUB / Blu-Ray / BDRip / HDTV

0 | 2

5.97 ГБ

В этой теме нет новых непрочитанных сообщений. Тёмная сторона / La cara oculta (2011) BDRemux | L1

1 | 2

15.95 ГБ

В этой теме нет новых непрочитанных сообщений. Трансформеры 3: Тёмная сторона Луны / Transformers: Dark of the Moon (2011) BDRemux

21 | 7

47.69 ГБ

В этой теме нет новых непрочитанных сообщений. Темная сторона страсти / In the Cut (2003) BDRip 1080p | P, P2

21 | 6

11.04 ГБ

В этой теме нет новых непрочитанных сообщений. Темная сторона души (01-04 из 04) (2015) WEB-DL 1080p от Files-x

451 | 32

3.17 ГБ

В этой теме нет новых непрочитанных сообщений. Темная сторона желания 2 / Страсть 2 / Jism 2 (2012) BDRip 1080p | L

1 | 3

8.36 ГБ




Вы не можете начинать темы
Вы не можете отвечать на сообщения
Вы не можете редактировать свои сообщения
Вы не можете удалять свои сообщения
Вы не можете добавлять вложения

Перейти:  
Для Мосгорсуда, Роскомнадзора и рекламодателей: mosgorsud-torrent[собачка]yandex.ru
 Вход
ppkBB3cker v.2 © 2008-2014 @ PPK
[ Time : 0.046s | 18 Queries | GZIP : Off ]

cron