img image001 image001 image001 image001 image001 image001 image001 image001 image001 image001 image001 image001 image001 image001 image001
Planets Sun Sun Sun
Статистика раздачи
Автор: PriZraK | Размер: 848.95 МБ | Добавлен: 12 фев 2018
Раздают: 2    Качают: 0
Скачать торрент
Скачать торрент
Описание торрента

СообщениеДобавлено: 12 фев 2018 

Вулкан, изменивший мир / The Volcano that Changed the World

Перевод: Профессиональный (двухголосый), cубтитры: отсутствуют
Формат: DVB, MPEG-TS, MPEG2, MP2
Страна: Германия, Франция, Leonardo Film GmbH, Arte
Режиссер: Элмар Бартлми, Флориан Брэйер
Жанр: документальный, игровой, история, исследования, археология
Продолжительность: 00:52:01
Год выпуска: 2017

Описание: 10 апреля 1815 года извержение вулкана Тамбора в Индонезии стало началом глобальной катастрофы. Это было крупнейшее извержение в истории. На острове вулкан убил 100 000 человек, больше чем любое во время любого другого другого извержения в истории. Но это было лишь начало. Извержение привело к изменению климата, в северном полушарии дождь и заморозки уничтожили посевы, в Европе начался голод, прокатилась волна эмиграции, а оставшиеся боролись за выживание или бунтовали. Но бунты и голод это не все проблемы. Ужасные болезни убили сотни тысяч человек. По всему миру распространялась холера, которая стала чумой ХIХ века. Как же так вышло, что всего одно извержение могло стать причиной бунтов, смертей и страданий на другом конце света?
Перемена климата повлияла на многие поколения. Она стала даже истоком промышленной революции и политических реформ во многих странах. Спустя 200 лет после извержения историки, археологи, геологи, климатологи и генетики впервые изучают то, как этот вулкан изменил мир.


Рейтинг MPAA -

Видео: 720х[email protected] (4:3), 25 fps, MPEG Video 2 ([email protected]), ~1975 kbps avg, 0.190 bit/pixel
Аудио: 48 kHz, MPEG Layer 2, 2 ch, ~192.00 kbps avg

Доп. информация: размер кадра - анаморфный - (768x576)

Автор рипа и постера: skorpionN


Код:
Код:
Общее
Идентификатор : 1 (0x1)
Полное имя : D:\The volcano that changed the world.ts
Формат : MPEG-TS
Размер файла : 849 Мбайт
Продолжительность : 52 м.
Режим общего битрейта : Переменный
Общий поток : 2282 Кбит/сек

Видео
Идентификатор : 222 (0xDE)
Идентификатор меню : 1822 (0x71E)
Формат : MPEG Video
Версия формата : Version 2
Профиль формата : [email protected]
Параметр BVOP формата : Да
Параметр матрицы формата : Выборочная
Параметр GOP формата : M=3, N=15
Структура изображения : Frame
Идентификатор кодека : 2
Продолжительность : 52 м.
Вид битрейта : Переменный
Битрейт : 1975 Кбит/сек
Максимальный битрейт : 9800 Кбит/сек
Ширина : 720 пикселей
Высота : 576 пикселей
Соотношение сторон : 4:3
Частота кадров : 25,000 кадров/сек
Стандарт вещания : PAL
Цветовое пространство : YUV
Субдискретизация насыщенности : 4:2:0
Битовая глубина : 8 бит
Тип развёртки : Чересстрочная
Порядок развёртки : Верхнее поле первое
Метод сжатия : С потерями
Бит/(Пиксели*Кадры) : 0.190
Временной код первого кадра : 00:00:00:00
Оригинал временного кода : Group of pictures header
GOP, открыто/закрыто : Открыто
GOP, открыто/закрыто на первом кадре : Закрыто
Размер потока : 735 Мбайт (87%)

Аудио
Идентификатор : 322 (0x142)
Идентификатор меню : 1822 (0x71E)
Формат : MPEG Audio
Версия формата : Version 1
Профиль формата : Layer 2
Идентификатор кодека : 3
Продолжительность : 52 м.
Вид битрейта : Постоянный
Битрейт : 192 Кбит/сек
Каналы : 2 канала
Частота : 48,0 КГц
Метод сжатия : С потерями
Размер потока : 71,4 Мбайт (8%)
Язык : Russian














   Похожие торренты   Торрент   Размер 
В этой теме нет новых непрочитанных сообщений. Секреты подземелья (1 сезон: 1-3 серии из 8 ) / Secrets of the Underground (Уильям Морган) [2017, документальный, археология, история, исследования, DVB] VO

6 | 2

3.24 ГБ

В этой теме нет новых непрочитанных сообщений. Секреты подземелья (1 сезон: 1-2 серии из 8 ) / Secrets of the Underground (Уильям Морган) [2017, документальный, археология, история, исследования, DVB] VO

12 | 6

2.14 ГБ

В этой теме нет новых непрочитанных сообщений. Мой домашний динозавр (43 сезон: 8 эпизод) / My Pet Dinosaur (Марк Эверест) [2007, документальный, археология, история, исследования, DVB] DVO

6 | 6

1.01 ГБ

В этой теме нет новых непрочитанных сообщений. Мощь вулканов (1 серия из 2) / The Power of Volcanos (Стефан Коэстер) [2016, документальный, игровой, история, исследования, HDTVRip] VO

5 | 0

794.1 МБ

В этой теме нет новых непрочитанных сообщений. Генрих и Анна: Любовники, изменившие историю (1-2 серии из 2) / Henry and Anne The Lovers Who Changed History [2014, документальный, история, исследования, DVB] VO

0 | 0

1.56 ГБ

В этой теме нет новых непрочитанных сообщений. Мощь вулканов (1 серия из 2) / The Power of Volcanos (Стефан Коэстер) [2016, документальный, игровой, история, исследования, HDTVRip 720р] VO

2 | 0

1.62 ГБ

В этой теме нет новых непрочитанных сообщений. Тайны царственных убийств (4 серии из 6) / Royal Murder Mysteries (Дэнни О'брайан) [2016, документальный, игровой, история, исследования, DVB] VO

2 | 0

3.19 ГБ




Вы не можете начинать темы
Вы не можете отвечать на сообщения
Вы не можете редактировать свои сообщения
Вы не можете удалять свои сообщения
Вы не можете добавлять вложения

Перейти:  
Для Мосгорсуда, Роскомнадзора и рекламодателей: mosgorsud-torrent[собачка]yandex.ru
 Вход
ppkBB3cker v.2 © 2008-2014 @ PPK
[ Time : 0.111s | 18 Queries | GZIP : Off ]

cron