img image001 image001 image001 image001 image001 image001 image001 image001 image001 image001 image001 image001 image001 image001 image001
Planets Sun Sun Sun
Статистика раздачи
Автор: Nickolas3434 | Размер: 4.75 ГБ | Добавлен: 26 фев 2014
Раздают: 25    Качают: 5
Скачать торрент
Скачать торрент
Описание торрента

СообщениеДобавлено: 26 фев 2014 

Информация о фильме
Название: Афтершок
Оригинальное название: Aftershock
Жанр: ужасы, триллер, драма
Год выпуска: 2012
Режиссёр: Николас Лопез
В ролях: Элай Рот, Андреа Ошварт, Эриель Леви, Николас Мартинез, Лоренца Иззо, Наташа Яровенко, Селена Гомес, Игнасия Алламанд, Дайана Амиго, Пас Баскуньян

О фильме:
Группа туристов из Америки приезжает на отдых в Чили. Начавшийся так удачно – со знакомства с симпатичными девушками и посещением лучших клубов – отдых прерывается внезапным землетрясением. Так как в этот момент наши герои находятся в подземном ночном клубе, им стоит немалого труда уцелеть среди обрушивающихся стен и всеобщего хаоса. Оказавшись в ловушке, друзья прилагают титанические усилия, чтобы проделать путь наверх.

Но выбравшись на поверхность, они попадают в мир ужаса, потому что из-за подземных толчков разрушились стены местной тюрьмы и преступники оказались на свободе. Так что теперь нашим туристам предстоит противостоять не только матери-природе, но и природе человека. Что окажется страшнее – разрушающийся город, когда угроза исходит не только из-под земли, но и от каждого здания, или люди на улицах – безжалостные и беспощадные? Что наводит больший ужас на цивилизованного человека и насколько надежна оболочка цивилизованности?



Выпущено: США, Чили
Продолжительность: 01:29:16
Озвучивание:
Профессиональное (многоголосое) [Лицензия]
Любительское (двухголосое) [den904 & DeadSno]

Файл
Формат: MKV
Качество: BDRip 720p [HDWing]
Видео: 5123 kb/s, 1280x720
Аудио:
Russian [Лицензия]: AC3, 448 kb/s (6 ch)
Russian [den904 & DeadSno]: AC3, 384 kb/s (6 ch)
English: DTS, 1510 kb/s (6 ch)
Субтитры: English
Дополнительно: Сохранены оригинальные чаптеры как на Blu-Ray
Размер: 4.75 GB
Скачать: Сэмпл

Релиз группы:




Общее
Aftershock.2012.Blu.Ray.720p.CINEMANIA.mkv
Формат : Matroska
Версия формата : Version 4 / Version 2
Размер файла : 4,75 Гбайт
Продолжительность : 1 ч. 29 м.
Общий поток : 7615 Кбит/сек
Название фильма : Release Group CINEMANIA
Дата кодирования : UTC 2014-02-25 18:38:17
Программа кодирования : mkvmerge v6.7.0 ('Back to the Ground') 64bit built on Jan 8 2014 15:10:52
Библиотека кодирования : libebml v1.3.0 + libmatroska v1.4.1

Видео
Идентификатор : 1
Формат : AVC
Формат/Информация : Advanced Video Codec
Профиль формата : [email protected]
Параметр CABAC формата : Да
Параметр ReFrames формата : 9 кадров
Идентификатор кодека : V_MPEG4/ISO/AVC
Продолжительность : 1 ч. 29 м.
Битрейт : 5123 Кбит/сек
Ширина : 1280 пикселей
Высота : 720 пикселей
Соотношение сторон : 16:9
Режим частоты кадров : Постоянный
Частота кадров : 23,976 кадра/сек
Цветовое пространство : YUV
Субдискретизация насыщенности : 4:2:0
Битовая глубина : 8 бит
Тип развёртки : Прогрессивная
Бит/(Пиксели*Кадры) : 0.232
Размер потока : 3,19 Гбайт (67%)
Заголовок : Release Group CINEMANIA
Библиотека кодирования : x264 core 132 r2323+704+51 d571b1c tMod [[email protected]:2:0 X86_64]
Настройки программы : cabac=1 / ref=9 / deblock=1:-3:-3 / analyse=0x3:0x113 / me=umh / subme=11 / psy=1 / fade_compensate=0.00 / psy_rd=1.05:0.00 / mixed_ref=1 / me_range=32 / chroma_me=1 / trellis=2 / 8x8dct=1 / cqm=0 / deadzone=21,11 / fast_pskip=0 / chroma_qp_offset=-2 / threads=36 / lookahead_threads=5 / sliced_threads=0 / nr=0 / decimate=0 / interlaced=0 / bluray_compat=0 / constrained_intra=0 / fgo=0 / bframes=8 / b_pyramid=2 / b_adapt=2 / b_bias=0 / direct=3 / weightb=1 / open_gop=0 / weightp=2 / keyint=240 / keyint_min=24 / scenecut=40 / intra_refresh=0 / rc_lookahead=240 / rc=crf / mbtree=1 / crf=17.0000 / qcomp=0.70 / qpmin=0 / qpmax=69 / qpstep=4 / ip_ratio=1.20 / aq=4:0.90 / aq-sensitivity=10.00 / aq-factor=1.00:1.00:1.00 / aq2=0 / aq3=0
Язык : English
Default : Да
Forced : Нет

Аудио #1
Идентификатор : 2
Формат : AC-3
Формат/Информация : Audio Coding 3
Расширение режима : CM (complete main)
Параметр Endianness формата : Big
Идентификатор кодека : A_AC3
Продолжительность : 1 ч. 29 м.
Вид битрейта : Постоянный
Битрейт : 448 Кбит/сек
Каналы : 6 каналов
Расположение каналов : Front: L C R, Side: L R, LFE
Частота : 48,0 КГц
Битовая глубина : 16 бит
Метод сжатия : С потерями
Размер потока : 286 Мбайт (6%)
Заголовок : Лицензия
Язык : Russian
Default : Да
Forced : Да

Аудио #2
Идентификатор : 3
Формат : AC-3
Формат/Информация : Audio Coding 3
Расширение режима : CM (complete main)
Параметр Endianness формата : Big
Идентификатор кодека : A_AC3
Продолжительность : 1 ч. 29 м.
Вид битрейта : Постоянный
Битрейт : 384 Кбит/сек
Каналы : 6 каналов
Расположение каналов : Front: L C R, Side: L R, LFE
Частота : 48,0 КГц
Битовая глубина : 16 бит
Метод сжатия : С потерями
Размер потока : 245 Мбайт (5%)
Заголовок : Влад и Снежинка
Язык : Russian
Default : Нет
Forced : Нет

Аудио #3
Идентификатор : 4
Формат : DTS
Формат/Информация : Digital Theater Systems
Режим : 16
Параметр Endianness формата : Big
Идентификатор кодека : A_DTS
Продолжительность : 1 ч. 29 м.
Вид битрейта : Постоянный
Битрейт : 1509 Кбит/сек
Каналы : 6 каналов
Расположение каналов : Front: L C R, Side: L R, LFE
Частота : 48,0 КГц
Битовая глубина : 24 бит
Метод сжатия : С потерями
Размер потока : 964 Мбайт (20%)
Язык : English
Default : Нет
Forced : Нет

Текст
Идентификатор : 5
Формат : UTF-8
Идентификатор кодека : S_TEXT/UTF8
Идентификатор кодека/Информация : UTF-8 Plain Text
Язык : English
Default : Нет
Forced : Нет

Меню
00:00:00.000 : :Chapter 01
00:03:39.260 : :Chapter 02
00:07:31.742 : :Chapter 03
00:16:05.673 : :Chapter 04
00:23:28.407 : :Chapter 05
00:30:26.408 : :Chapter 06
00:38:32.185 : :Chapter 07
00:45:00.614 : :Chapter 08
00:50:40.955 : :Chapter 09
00:56:45.944 : :Chapter 10
01:04:07.177 : :Chapter 11
01:12:24.381 : :Chapter 12
01:20:05.843 : :Chapter 13
01:23:56.865 : :Chapter 14



   Похожие торренты   Торрент   Размер 
В этой теме нет новых непрочитанных сообщений. Афтершок / Aftershock (2012) BDRip 1080p от CINEMANIA | P, L2

10 | 3

8.16 ГБ

В этой теме нет новых непрочитанных сообщений. Афтершок / Aftershock (2012) WEB-DL 720p | L2

55 | 6

2.29 ГБ

В этой теме нет новых непрочитанных сообщений. Афтершок / Aftershock (2012) BDRip-AVC от HELLYWOOD | Лицензия

19 | 6

2.18 ГБ

В этой теме нет новых непрочитанных сообщений. Афтершок / Aftershock (2012) HDRip

35 | 6

747.7 МБ

В этой теме нет новых непрочитанных сообщений. Афтершок / Aftershock (2012) HDRip | L2

109 | 9

1.36 ГБ

В этой теме нет новых непрочитанных сообщений. Афтершок / Aftershock (2012) HDRip-AVC от ExKinoRay | P

53 | 3

745.47 МБ

В этой теме нет новых непрочитанных сообщений. Афтершок / Aftershock (2012) HDRip | Р | Лицензия

40 | 10

1.46 ГБ




Вы не можете начинать темы
Вы не можете отвечать на сообщения
Вы не можете редактировать свои сообщения
Вы не можете удалять свои сообщения
Вы не можете добавлять вложения

Перейти:  
Для Мосгорсуда, Роскомнадзора и рекламодателей: mosgorsud-torrent[собачка]yandex.ru
 Вход
ppkBB3cker v.2 © 2008-2014 @ PPK
[ Time : 0.057s | 19 Queries | GZIP : Off ]

cron