img image001 image001 image001 image001 image001 image001 image001 image001 image001 image001 image001 image001 image001 image001 image001
Planets Sun Sun Sun
Статистика раздачи
Автор: Nickolas3434 | Размер: 7.94 ГБ | Добавлен: 28 сен 2014
Раздают: 101    Качают: 14
Скачать торрент
Скачать торрент
Описание торрента

СообщениеДобавлено: 28 сен 2014 

Название: Деньги на двоих
Оригинальное название: Two for the Money
Год выпуска: 2005
Жанр: триллер, драма, спорт
Выпущено: США
Продолжительность: 02:02:32
Перевод: Дубляж - [Лицензия]
Режиссер: Ди Джей Карузо / D.J. Caruso
В ролях: Аль Пачино (Walter), Мэттью МакКонахи (Brandon), Рене Руссо (Toni), Арманд Ассанте (Novian), Джереми Пивен (Jerry), Джейми Кинг (Alexandria), Кевин Чэпмен (Southie), Ральф Гармен (Reggie), Гедде Ватанабэ (Milton), Карли Поуп (Tammy), Чарльз Кэррол (Chuck), Джерард Планкет (Herbie)

Сюжет фильма:
Форвард успешной футбольной команды Брэндон, получив травму и навсегда распрощавшись со спортивной карьерой, вынужден искать иные способы заработка. Тут-то он и вспоминает знаменитого букмекера Уолтера, некогда предлагавшего Брэндону выгодные аферы, на которые звезда футбола всегда отвечал гордым отказом.
Уолтер, знающий наверняка, как легко и быстро приумножить капитал, заключает с экс-футболистом авантюрный договор. Жонглируя миллионами долларов, Брэндон и Уолтер вступают в опасную игру, где проигрыш подобен смерти. К ним в руки плывут бешеные деньги, но выдержит ли Боливар двоих?...



Качество: BDRip 1080p (исходник Blu-ray)
Формат: AVC(библиотека кодирования x.264)
Контейнер (Расширение): MKV
Видео кодек: AVC
Аудио кодек:AC3
Видео: AVC, 1920x816 (2.35:1), 8007 Кбит/сек, 23,976 кадр/сек, 0,213 Бит/[Пиксели*Кадры]
Аудио №1: русский / AC3 / 5.1 / 48 kHz / 640 kbps / 16 bit |Дубляж - [Лицензия]|
Аудио №2: английский / AC3 / 5.1 / 48 kHz / 640 kbps / 16 bit
Субтитры: русские (Russian),
Навигация по главам(Чаптеры): есть



Автор рипа: Сообщество:

Format : Matroska
Format version : Version 2
File size : 7.94 GiB
Duration : 2h 2mn
Overall bit rate : 9 276 Kbps
Movie name : Den'gi na dvoih.(2005).BDRip.1080p.[denis100]
Encoded date : UTC 2014-09-28 16:43:03
Writing application : mkvmerge v5.8.0 ('No Sleep / Pillow') built on Sep 2 2012 15:37:04
Writing library : libebml v1.2.3 + libmatroska v1.3.0

Video
ID : 1
Format : AVC
Format/Info : Advanced Video Codec
Format profile : [email protected]
Format settings, CABAC : Yes
Format settings, ReFrames : 5 frames
Codec ID : V_MPEG4/ISO/AVC
Duration : 2h 2mn
Bit rate : 8 007 Kbps
Width : 1 920 pixels
Height : 816 pixels
Display aspect ratio : 2.35:1
Frame rate : 23.976 fps
Color space : YUV
Chroma subsampling : 4:2:0
Bit depth : 8 bits
Scan type : Progressive
Bits/(Pixel*Frame) : 0.213
Stream size : 6.69 GiB (84%)
Title : Den'gi na dvoih.(2005).BDRip.1080p.[denis100]
Writing library : x264 core 142 r2479 dd79a61
Encoding settings : cabac=1 / ref=5 / deblock=1:-3:-3 / analyse=0x3:0x133 / me=umh / subme=11 / psy=1 / psy_rd=1.00:0.10 / mixed_ref=1 / me_range=32 / chroma_me=1 / trellis=2 / 8x8dct=1 / cqm=0 / deadzone=21,11 / fast_pskip=0 / chroma_qp_offset=-3 / threads=6 / lookahead_threads=1 / sliced_threads=0 / nr=0 / decimate=1 / interlaced=0 / bluray_compat=0 / constrained_intra=0 / bframes=8 / b_pyramid=2 / b_adapt=2 / b_bias=0 / direct=3 / weightb=1 / open_gop=0 / weightp=2 / keyint=240 / keyint_min=23 / scenecut=40 / intra_refresh=0 / rc=2pass / mbtree=0 / bitrate=8007 / ratetol=1.0 / qcomp=0.60 / qpmin=0 / qpmax=69 / qpstep=4 / cplxblur=20.0 / qblur=0.5 / ip_ratio=1.40 / pb_ratio=1.30 / aq=1:1.00
Language : English
Default : Yes
Forced : No

Audio #1
ID : 2
Format : AC-3
Format/Info : Audio Coding 3
Mode extension : CM (complete main)
Codec ID : A_AC3
Duration : 2h 2mn
Bit rate mode : Constant
Bit rate : 640 Kbps
Channel(s) : 6 channels
Channel positions : Front: L C R, Side: L R, LFE
Sampling rate : 48.0 KHz
Bit depth : 16 bits
Compression mode : Lossy
Stream size : 561 MiB (7%)
Title : Дубляж, CP Digital
Language : Russian
Default : Yes
Forced : No

Audio #2
ID : 3
Format : AC-3
Format/Info : Audio Coding 3
Mode extension : CM (complete main)
Codec ID : A_AC3
Duration : 2h 2mn
Bit rate mode : Constant
Bit rate : 640 Kbps
Channel(s) : 6 channels
Channel positions : Front: L C R, Side: L R, LFE
Sampling rate : 48.0 KHz
Bit depth : 16 bits
Compression mode : Lossy
Stream size : 561 MiB (7%)
Title : English
Language : English
Default : No
Forced : No

Text
ID : 4
Format : UTF-8
Codec ID : S_TEXT/UTF8
Codec ID/Info : UTF-8 Plain Text
Title : Russian
Language : Russian
Default : No
Forced : No

Menu
00:00:00.000 : en:00:00:00.000
00:01:53.738 : en:00:01:53.738
00:04:01.991 : en:00:04:01.991
00:08:11.199 : en:00:08:11.199
00:10:17.366 : en:00:10:17.366
00:14:53.767 : en:00:14:53.767
00:17:15.784 : en:00:17:15.784
00:23:28.323 : en:00:23:28.323
00:28:40.552 : en:00:28:40.552
00:32:17.352 : en:00:32:17.352
00:36:21.846 : en:00:36:21.846
00:39:52.556 : en:00:39:52.556
00:43:39.700 : en:00:43:39.700
00:47:28.720 : en:00:47:28.720
00:50:11.049 : en:00:50:11.049
00:54:03.907 : en:00:54:03.907
00:57:01.876 : en:00:57:01.876
01:01:26.307 : en:01:01:26.307
01:04:04.549 : en:01:04:04.549
01:06:40.746 : en:01:06:40.746
01:10:49.161 : en:01:10:49.161
01:14:19.913 : en:01:14:19.913
01:19:17.210 : en:01:19:17.210
01:23:30.380 : en:01:23:30.380
01:26:18.756 : en:01:26:18.756
01:30:25.628 : en:01:30:25.628
01:33:02.410 : en:01:33:02.410
01:39:32.424 : en:01:39:32.424
01:46:56.952 : en:01:46:56.952
01:49:33.733 : en:01:49:33.733
01:55:23.041 : en:01:55:23.041
01:56:50.044 : en:01:56:50.044




   Похожие торренты   Торрент   Размер 
В этой теме нет новых непрочитанных сообщений. Деньги на двоих / Two for the Money (2005) BDRemux 1080p | D

11 | 18

29.65 ГБ

В этой теме нет новых непрочитанных сообщений. Деньги на двоих / Two for the Money (2005) BDRip от HQ-ViDEO

32 | 17

2.57 ГБ

В этой теме нет новых непрочитанных сообщений. Деньги на двоих / Two for the Money (2005) BDRip-AVC от MediaClub | D

129 | 18

3.76 ГБ

В этой теме нет новых непрочитанных сообщений. Деньги на двоих / Two for the Money (2005) BDRip-AVC от ExKinoRay | D

20 | 0

747.06 МБ

В этой теме нет новых непрочитанных сообщений. Деньги на двоих / Two for the Money (2005) BDRip 720p | D

81 | 16

4.37 ГБ

В этой теме нет новых непрочитанных сообщений. Деньги на двоих / Two for the Money (2005) BDRip-AVC от ExKinoRay | D, A

19 | 4

2.87 ГБ

В этой теме нет новых непрочитанных сообщений. Деньги на двоих / Two for the Money (2005) HDRip от Portablius | D

126 | 20

750.27 МБ




Вы не можете начинать темы
Вы не можете отвечать на сообщения
Вы не можете редактировать свои сообщения
Вы не можете удалять свои сообщения
Вы не можете добавлять вложения

Перейти:  
Для Мосгорсуда, Роскомнадзора и рекламодателей: mosgorsud-torrent[собачка]yandex.ru
 Вход
ppkBB3cker v.2 © 2008-2014 @ PPK
[ Time : 0.032s | 19 Queries | GZIP : Off ]

cron