img image001 image001 image001 image001 image001 image001 image001 image001 image001 image001 image001 image001 image001 image001 image001
Planets Sun Sun Sun
Статистика раздачи
Автор: Снежана | Размер: 13.13 ГБ | Добавлен: 21 июл 2013
Раздают: 4    Качают: 2
Скачать торрент
Скачать торрент
Описание торрента

СообщениеДобавлено: 21 июл 2013 

#77

Название: Игры дьявола
Оригинальное название: Before the Devil Knows You're Dead
Год выхода: 2007
Страна: США, Великобритания
Жанр: триллер, драма, криминал
Режиссер: Сидни Люмет / Sidney Lumet
В ролях: Филип Сеймур Хоффман, Этан Хоук, Альберт Финни, Мариса Томей, Алекса Палладино, Майкл Шеннон, Эми Райан, Сара Ливингстон, Брайан Ф. О’Бирн, Розмари Харрис

О фильме: Два брата замыслили идеальное, как им кажется, преступление. В теории они должны получить огромную сумму денег, обойдясь при этом без оружия, жестокости и кровопролития. Более того, вероятность неудачи сведена к нулю. Однако хитроумный план идет прахом, когда соучастник героев самовольно меняет правила игры, и подвергает себя и подельников неоправданному риску. Преступники теряют контроль над ситуацией, а череда последующих событий, увы, никого не оставляет в безопасности...

Информация о файле:
Качество: BDRip 1080p
Продолжительность: 01:56:43
Язык (перевод):
1) русский дублированный
2) русский одноголосый закадровый (Ю. Сербин)
3) оригинальная английская дорожка
4) английские комментарии
Субтитры: украинские, английские
Формат: MKV

Видео: AVC,1920x1040,12101 Kbps,23.976 fps
Аудио 1: 48 kHz, DTS, 3/2 (L,C,R,l,r) + LFE ch, ~768.00 kbps
Аудио 2: 48 kHz, DTS, 3/2 (L,C,R,l,r) + LFE ch, ~1536.00 kbps
Аудио 3: 48 kHz, DTS, 3/2 (L,C,R,l,r) + LFE ch, ~1536.00 kbps
Аудио 4: 48 kHz, AAC, 2/0 (L,R) ch, ~224.00 kbps avg
General
Unique ID : 170804475594930865570306301479422365133 (0x807FBED3BCE594588A882B6C7C6D8DCD)
Complete name : D:DownloadsВидеоBefore.the.Devil.Knows.You're.Dead.2007.1080p.BluRay.DTS.x264-HDV.mkv
Format : Matroska
File size : 13.1 GiB
Duration : 1h 56mn
Overall bit rate : 16.1 Mbps
Movie name : -Talian-
Encoded date : UTC 2011-11-05 21:14:21
Writing application : mkvmerge v3.3.0 ('Language') сборка от May 14 2010 17:11:50
Writing library : libebml v0.8.0 + libmatroska v0.9.0

Video
ID : 1
Format : AVC
Format/Info : Advanced Video Codec
Format profile : [email protected]
Format settings, CABAC : Yes
Format settings, ReFrames : 4 frames
Codec ID : V_MPEG4/ISO/AVC
Duration : 1h 56mn
Bit rate : 12.1 Mbps
Width : 1 920 pixels
Height : 1 040 pixels
Display aspect ratio : 16:9
Frame rate : 23.976 fps
Color space : YUV
Chroma subsampling : 4:2:0
Bit depth : 8 bits
Scan type : Progressive
Bits/(Pixel*Frame) : 0.253
Stream size : 9.61 GiB (73%)
Title : Before.the.Devil.Knows.You're.Dead.2007.1080p.BluRay.DTS.x264-HDV
Writing library : x264 core 59 r821M 44361e9
Encoding settings : cabac=1 / ref=4 / deblock=1:-3:-3 / analyse=0x3:0x113 / me=umh / subme=7 / me-prepass=0 / brdo=1 / mixed_ref=1 / me_range=16 / chroma_me=1 / trellis=1 / 8x8dct=1 / cqm=2 / deadzone=6,4 / chroma_qp_offset=0 / threads=6 / nr=0 / decimate=1 / mbaff=0 / bframes=3 / b_pyramid=1 / b_adapt=1 / b_bias=0 / direct=1 / wpredb=1 / bime=1 / keyint=250 / keyint_min=25 / scenecut=40(pre) / rc=2pass / bitrate=12101 / ratetol=1.0 / rceq='blurCplx^(1-qComp)' / qcomp=1.00 / qpmin=10 / qpmax=51 / qpstep=4 / cplxblur=20.0 / qblur=0.5 / ip_ratio=1.40 / pb_ratio=1.30 / aq=2:1.00
Language : English

Audio #1
ID : 2
Format : DTS
Format/Info : Digital Theater Systems
Codec ID : A_DTS
Duration : 1h 56mn
Bit rate mode : Constant
Bit rate : 755 Kbps
Channel(s) : 6 channels
Channel positions : Front: L C R, Side: L R, LFE
Sampling rate : 48.0 KHz
Bit depth : 24 bits
Compression mode : Lossy
Stream size : 630 MiB (5%)
Title : DUB
Language : Russian

Audio #2
ID : 3
Format : DTS
Format/Info : Digital Theater Systems
Codec ID : A_DTS
Duration : 1h 56mn
Bit rate mode : Constant
Bit rate : 1 510 Kbps
Channel(s) : 6 channels
Channel positions : Front: L C R, Side: L R, LFE
Sampling rate : 48.0 KHz
Bit depth : 24 bits
Compression mode : Lossy
Stream size : 1.23 GiB (9%)
Title : AVO-Ю.Сербин
Language : Russian

Audio #3
ID : 4
Format : DTS
Format/Info : Digital Theater Systems
Codec ID : A_DTS
Duration : 1h 56mn
Bit rate mode : Constant
Bit rate : 1 510 Kbps
Channel(s) : 6 channels
Channel positions : Front: L C R, Side: L R, LFE
Sampling rate : 48.0 KHz
Bit depth : 24 bits
Compression mode : Lossy
Stream size : 1.23 GiB (9%)
Title : Original
Language : English

Audio #4
ID : 5
Format : AC-3
Format/Info : Audio Coding 3
Mode extension : CM (complete main)
Codec ID : A_AC3
Duration : 1h 56mn
Bit rate mode : Constant
Bit rate : 224 Kbps
Channel(s) : 2 channels
Channel positions : Front: L R
Sampling rate : 48.0 KHz
Bit depth : 16 bits
Compression mode : Lossy
Stream size : 187 MiB (1%)
Title : Commentary
Language : English

Text #1
ID : 6
Format : UTF-8
Codec ID : S_TEXT/UTF8
Codec ID/Info : UTF-8 Plain Text
Title : Sub
Language : Ukrainian

Text #2
ID : 7
Format : UTF-8
Codec ID : S_TEXT/UTF8
Codec ID/Info : UTF-8 Plain Text
Title : Sub
Language : English

Menu
00:00:00.000 : 00:00:00.000
00:04:00.865 : 00:04:00.865
00:08:58.370 : 00:08:58.370
00:13:26.053 : 00:13:26.053
00:16:35.158 : 00:16:35.158
00:21:27.286 : 00:21:27.286
00:29:56.000 : 00:29:56.000
00:37:50.893 : 00:37:50.893
00:41:47.713 : 00:41:47.713
00:47:55.289 : 00:47:55.289
00:51:50.731 : 00:51:50.731
00:59:29.565 : 00:59:29.565
01:05:55.242 : 01:05:55.242
01:13:11.386 : 01:13:11.386
01:17:52.332 : 01:17:52.332
01:23:12.904 : 01:23:12.904
01:30:16.411 : 01:30:16.411
01:34:20.529 : 01:34:20.529
01:41:51.104 : 01:41:51.104
01:46:45.814 : 01:46:45.814
01:52:32.578 : 01:52:32.578




   Похожие торренты   Торрент   Размер 
В этой теме нет новых непрочитанных сообщений. Игры дьявола / Before the Devil Knows You're Dead (2007) BDRip 1080p

38 | 14

7.76 ГБ

В этой теме нет новых непрочитанных сообщений. Игры дьявола / Before the Devil Knows You're Dead (2007) BDRip

45 | 1

748.93 МБ

В этой теме нет новых непрочитанных сообщений. Игры дьявола / Before the Devil Knows You're Dead (2007) BDRip

19 | 6

1.46 ГБ

В этой теме нет новых непрочитанных сообщений. Игры дьявола / Before the Devil Knows You're Dead (2007) BDRip-AVC от R.G. AVI | AVC

9 | 3

2.18 ГБ

В этой теме нет новых непрочитанных сообщений. Игры дьявола / Before the Devil Knows You're Dead (2007) BDRip 720p

19 | 6

4.98 ГБ

В этой теме нет новых непрочитанных сообщений. Игры дьявола / Before the Devil Knows You're Dead (2007) BDRip от HQ-ViDEO | D

207 | 18

2.19 ГБ

В этой теме нет новых непрочитанных сообщений. Игры дьявола / Before the Devil Knows You're Dead (2007) BDRip от HQCLUB

8 | 2

2.18 ГБ




Вы не можете начинать темы
Вы не можете отвечать на сообщения
Вы не можете редактировать свои сообщения
Вы не можете удалять свои сообщения
Вы не можете добавлять вложения

Перейти:  
Для Мосгорсуда, Роскомнадзора и рекламодателей: mosgorsud-torrent[собачка]yandex.ru
 Вход
ppkBB3cker v.2 © 2008-2014 @ PPK
[ Time : 0.050s | 18 Queries | GZIP : Off ]

cron