img image001 image001 image001 image001 image001 image001 image001 image001 image001 image001 image001 image001 image001 image001 image001 image001
Planets Sun Sun Sun
Статистика раздачи
Автор: Nickolas3434 | Размер: 8.96 ГБ | Добавлен: 05 май 2016
Раздают: 14    Качают: 3
Скачать торрент
Скачать торрент
Описание торрента

СообщениеДобавлено: 05 май 2016 

Кинг Конг

King Kong

«Восьмое чудо света»



Страна: Новая Зеландия, США, Германия
Жанр: боевик, драма, мелодрама, приключения, фэнтези
Год выпуска: 2005
Продолжительность: 03:07:15
Перевод: Профессиональный (полное дублирование), 2 x Профессиональный (двухголосый, закадровый), Оригинальный.
Субтитры: русские, английские.


Режиссер: Питер Джексон / Peter Jackson


В ролях: Наоми Уоттс (Ann Darrow), Эдриан Броуди (Jack Driscoll), Джек Блэк (Carl Denham), Томас Кречман (Captain Englehorn), Энди Серкис (Kong / Lumpy), Колин Хэнкс (Preston), Джейми Белл (Jimmy), Кайл Чандлер (Bruce Baxter), Эван Парк (Hayes), Лобо Чан (Choy), Джон Самнер (Herb), Крэйг Холл (Mike)
Дублёры: Жанна Никонова (Ann Darrow), Игорь Тарадайкин (Jack Driscoll), Алексей Колган (Carl Denham), Андрей Градов (Captain Englehorn), Борис Быстров (Kong / Lumpy), Илья Бледный (Preston), Александр Гаврилин (Jimmy), Алексей Иващенко (Bruce Baxter), Виктор Бохон (Hayes), Вячеслав Баранов (Choy), Виктор Петров (Herb), Денис Беспалый (Mike)


Описание: В 1930-м году съемочная группа под предводительством режиссера-неудачника Карла Дэнхэма отправляется на загадочный Остров Черепа неподалеку от Суматры, чтобы изучать легенды о гигантской горилле по кличке Конг. По прибытии на место они обнаруживают, что Кинг Конг и правда существует. Горилла живет в самой чаще непроходимых джунглей, где помимо него, спрятанные от всего мира, обитают многие создания из доисторических времен. Исследователи оказываются между двух огней - с одной стороны Кинг Конг, а с другой - его враги динозавры...



MPAA: PG-13 - Детям до 13 лет просмотр не желателен


Семпл


Качество: BDRip
Контейнер: MKV
Видео: AVC, 1280x544 (2.35:1), 4796 kbps, 23,976 fps, 0,287 bpp
Аудио №1: русский / AC3 / 5.1 / 48 kHz / 640 kbps / Дубляж
Аудио №2: русский / AC3 / 5.1 / 48 kHz / 384 kbps / DVO ( П. Гланц и И. Королева )
Аудио №3: русский / AC3 / 5.1 / 48 kHz / 384 kbps / DVO ( Tycoon-studio )
Аудио №4: английский / AC3 / 5.1 / 48 kHz / 640 kbps
Навигация по главам: есть


-------------------------------------------------------------------------------
x264 [info]: frame I:2193 Avg QP:16.30 size:118800
x264 [info]: frame P:68834 Avg QP:19.52 size: 44334
x264 [info]: frame B:198361 Avg QP:20.92 size: 17257
x264 [info]: consecutive B-frames: 3.2% 5.7% 12.7% 32.4% 11.9% 30.9% 1.3% 1.4% 0.4%
-------------------------------------------------------------------------------
Format : Matroska
Format version : Version 2
File size : 8.96 GiB
Duration : 3h 7mn
Overall bit rate : 6 847 Kbps
Movie name : = Кинг Конг / King Kong (2005) BDRip 720p by SC Kosmos =
Encoded date : UTC 2016-04-04 21:14:15
Writing application : mkvmerge v5.8.0 ('No Sleep / Pillow') built on Sep 2 2012 15:37:04
Writing library : libebml v1.2.3 + libmatroska v1.3.0
Attachment : Yes
Video
ID : 1
Format : AVC
Format/Info : Advanced Video Codec
Format profile : [email protected]
Format settings, CABAC : Yes
Format settings, ReFrames : 10 frames
Codec ID : V_MPEG4/ISO/AVC
Duration : 3h 7mn
Bit rate : 4 796 Kbps
Width : 1 280 pixels
Height : 544 pixels
Display aspect ratio : 2.35:1
Frame rate : 23.976 fps
Color space : YUV
Chroma subsampling : 4:2:0
Bit depth : 8 bits
Scan type : Progressive
Bits/(Pixel*Frame) : 0.287
Stream size : 6.10 GiB (68%)
Title : Кинг Конг / King Kong (2005) BDRip 720p by SC Kosmos
Writing library : x264 core 146 r2538 121396c
Encoding settings : cabac=1 / ref=10 / deblock=1:-1:-1 / analyse=0x3:0x113 / me=esa / subme=11 / psy=1 / psy_rd=1.00:0.00 / mixed_ref=1 / me_range=32 / chroma_me=1 / trellis=2 / 8x8dct=1 / cqm=0 / deadzone=21,11 / fast_pskip=0 / chroma_qp_offset=-2 / threads=12 / lookahead_threads=2 / sliced_threads=0 / nr=0 / decimate=0 / interlaced=0 / bluray_compat=0 / constrained_intra=0 / bframes=8 / b_pyramid=2 / b_adapt=2 / b_bias=0 / direct=3 / weightb=1 / open_gop=0 / weightp=2 / keyint=240 / keyint_min=23 / scenecut=40 / intra_refresh=0 / rc=2pass / mbtree=0 / bitrate=4796 / ratetol=1.0 / qcomp=0.60 / qpmin=0 / qpmax=69 / qpstep=4 / cplxblur=20.0 / qblur=0.5 / ip_ratio=1.40 / pb_ratio=1.30 / aq=1:1.00 / zones=255680,269388,b=0.25
Language : English
Default : Yes
Forced : No
Audio #1
ID : 2
Format : AC-3
Format/Info : Audio Coding 3
Mode extension : CM (complete main)
Codec ID : A_AC3
Duration : 3h 7mn
Bit rate mode : Constant
Bit rate : 640 Kbps
Channel(s) : 6 channels
Channel positions : Front: L C R, Side: L R, LFE
Sampling rate : 48.0 KHz
Bit depth : 16 bits
Compression mode : Lossy
Stream size : 857 MiB (9%)
Title : Дубляж
Language : Russian
Default : Yes
Forced : No
Audio #2
ID : 3
Format : AC-3
Format/Info : Audio Coding 3
Mode extension : CM (complete main)
Codec ID : A_AC3
Duration : 3h 7mn
Bit rate mode : Constant
Bit rate : 384 Kbps
Channel(s) : 6 channels
Channel positions : Front: L C R, Side: L R, LFE
Sampling rate : 48.0 KHz
Bit depth : 16 bits
Compression mode : Lossy
Stream size : 514 MiB (6%)
Title : DVO ( П. Гланц и И. Королева )
Language : Russian
Default : No
Forced : No
Audio #3
ID : 4
Format : AC-3
Format/Info : Audio Coding 3
Mode extension : CM (complete main)
Codec ID : A_AC3
Duration : 3h 7mn
Bit rate mode : Constant
Bit rate : 384 Kbps
Channel(s) : 6 channels
Channel positions : Front: L C R, Side: L R, LFE
Sampling rate : 48.0 KHz
Bit depth : 16 bits
Compression mode : Lossy
Stream size : 514 MiB (6%)
Title : DVO ( Tycoon-studio )
Language : Russian
Default : No
Forced : No
Audio #4
ID : 5
Format : AC-3
Format/Info : Audio Coding 3
Mode extension : CM (complete main)
Codec ID : A_AC3
Duration : 3h 7mn
Bit rate mode : Constant
Bit rate : 640 Kbps
Channel(s) : 6 channels
Channel positions : Front: L C R, Side: L R, LFE
Sampling rate : 48.0 KHz
Bit depth : 16 bits
Compression mode : Lossy
Stream size : 857 MiB (9%)
Language : English
Default : No
Forced : No
Text #1
ID : 6
Format : UTF-8
Codec ID : S_TEXT/UTF8
Codec ID/Info : UTF-8 Plain Text
Language : Russian
Default : Yes
Forced : No
Text #2
ID : 7
Format : UTF-8
Codec ID : S_TEXT/UTF8
Codec ID/Info : UTF-8 Plain Text
Language : English
Default : No
Forced : No
Menu
00:00:00.000 : en:00:00:00.000
00:03:02.806 : en:00:03:02.806
00:04:20.802 : en:00:04:20.802
00:06:43.944 : en:00:06:43.944
00:10:29.669 : en:00:10:29.669
00:12:33.210 : en:00:12:33.210
00:14:18.399 : en:00:14:18.399
00:17:40.893 : en:00:17:40.893
00:20:25.848 : en:00:20:25.848
00:24:13.285 : en:00:24:13.285
00:25:55.636 : en:00:25:55.636
00:26:13.363 : en:00:26:13.363
00:28:00.636 : en:00:28:00.636
00:30:29.536 : en:00:30:29.536
00:31:07.448 : en:00:31:07.448
00:33:07.359 : en:00:33:07.359
00:34:14.510 : en:00:34:14.510
00:36:55.880 : en:00:36:55.880
00:39:45.673 : en:00:39:45.673
00:41:07.505 : en:00:41:07.505
00:42:31.715 : en:00:42:31.715
00:43:45.873 : en:00:43:45.873
00:52:20.177 : en:00:52:20.177
00:55:49.929 : en:00:55:49.929
01:02:07.264 : en:01:02:07.264
01:07:32.797 : en:01:07:32.797
01:12:39.479 : en:01:12:39.479
01:14:28.796 : en:01:14:28.796
01:17:53.335 : en:01:17:53.335
01:20:12.015 : en:01:20:12.015
01:26:50.371 : en:01:26:50.371
01:27:46.426 : en:01:27:46.426
01:29:27.528 : en:01:29:27.528
01:36:13.057 : en:01:36:13.057
01:39:57.115 : en:01:39:57.115
01:51:36.355 : en:01:51:36.355
01:57:19.323 : en:01:57:19.323
02:01:29.657 : en:02:01:29.657
02:04:02.141 : en:02:04:02.141
02:09:46.694 : en:02:09:46.694
02:18:05.692 : en:02:18:05.692
02:20:00.891 : en:02:20:00.891
02:21:51.335 : en:02:21:51.335
02:31:00.925 : en:02:31:00.925
02:35:34.324 : en:02:35:34.324
02:40:07.638 : en:02:40:07.638
02:41:13.163 : en:02:41:13.163
02:43:31.800 : en:02:43:31.800
02:51:05.379 : en:02:51:05.379
02:57:42.150 : en:02:57:42.150









   Похожие торренты   Торрент   Размер 
В этой теме нет новых непрочитанных сообщений. Кинг Конг [Театральная версия] / King Kong [Theatrical Cut] (2005) BDRip от HQCLUB

18 | 6

2.9 ГБ

В этой теме нет новых непрочитанных сообщений. Кинг Конг / King Kong (2005) BDRip-AVC от R. G. Jolly Roger | D | Театральная версия

15 | 3

4.18 ГБ

В этой теме нет новых непрочитанных сообщений. Кинг Конг / King Kong (2005) BDRip 720р от SuperMin | Театральная версия | D

127 | 8

6.7 ГБ

В этой теме нет новых непрочитанных сообщений. Кинг Конг / King Kong (2005) BDRip 720р от SuperMin | Театральная версия | D | Лицензия

100 | 17

5.7 ГБ

В этой теме нет новых непрочитанных сообщений. Кинг Конг / King Kong (2005) HDRip от Scarabey | D | Театральная версия

30 | 4

1.46 ГБ

В этой теме нет новых непрочитанных сообщений. Кинг Конг / King Kong (2005) HDRip от Scarabey | D | Театральная версия

3 | 4

2.89 ГБ

В этой теме нет новых непрочитанных сообщений. Кинг Конг / King Kong (2005) HDRip от Scarabey | D | Театральная версия

18 | 2

2.18 ГБ




Вы не можете начинать темы
Вы не можете отвечать на сообщения
Вы не можете редактировать свои сообщения
Вы не можете удалять свои сообщения
Вы не можете добавлять вложения

Перейти:  
Для Мосгорсуда, Роскомнадзора и рекламодателей: mosgorsud-torrent[собачка]yandex.ru
 Вход
ppkBB3cker v.2 © 2008-2014 @ PPK
[ Time : 0.045s | 18 Queries | GZIP : Off ]

cron