img image001 image001 image001 image001 image001 image001 image001 image001 image001 image001 image001 image001 image001 image001 image001
Planets Sun Sun Sun
Статистика раздачи
Автор: Снежана | Размер: 2.92 ГБ | Добавлен: 22 июл 2013
Раздают: 14    Качают: 3
Скачать торрент
Скачать торрент
Описание торрента

СообщениеДобавлено: 22 июл 2013 

#77

Страна: США, Франция
Жанр: боевик, драма, военный
Год выпуска: 2000
Режиссер: Джонатан Мостоу / Jonathan Mostow
В ролях: Мэттью МакКонахи, Билл Пэкстон, Харви Кейтель, Джон Бон Джови, Дэвид Кейт, Томас Кречманн, Джэйк Вебер, Джек Ноузворфи, Том Гуири, Уилл Эстес

Описание:
1942 год. Немецкие подводные лодки хозяйничают в Атлантике. Радиоперехваты не дают союзникам ничего: сообщения противника не поддаются расшифровке.
И тогда американские моряки получают секретное задание: захватить вражескую субмарину U-571 и находящуюся на ее борту шифровальную машину «Энигма». Захватить... и вернуться обратно!



Продолжительность: 01:55:59
Перевод: Профессиональный (дублированный)
Cубтитры: отсутствуют

Качество видео: BDRip-AVC ( Исходник Blu-ray disc 1080р (custom) BD-25)
Формат видео: MKV
Видео: MPEG-4 AVC, 1024x576 (16:9), 24 fps, ~3213 kbps, 0.227 bit/pixel
Аудио: Russian, Audio Coding 3, 48 kHz, 5.1 ch, CBR 384 kbps | Дубляж

Доп. информация: Видео со скандинавского диска, с AR 1.78 (без обрезаний сверху и снизу).

General
Unique ID : 188617612143209838106429242921235078707 (0x8DE66E44183DB47BB5926524BAB95E33)
Complete name : u-571.mkv
Format : Matroska
File size : 2.92 GiB
Duration : 1h 55mn
Overall bit rate : 3 599 Kbps
Encoded date : UTC 2011-06-30 01:18:53
Writing application : mkvmerge v4.8.0 ('I Got The...') сборка от May 24 2011 03:12:58
Writing library : libebml v1.2.0 + libmatroska v1.1.0

Video
ID : 1
Format : AVC
Format/Info : Advanced Video Codec
Format profile : [email protected]
Format settings, CABAC : Yes
Format settings, ReFrames : 9 frames
Codec ID : V_MPEG4/ISO/AVC
Duration : 1h 55mn
Bit rate : 3 213 Kbps
Width : 1 024 pixels
Height : 576 pixels
Display aspect ratio : 16:9
Frame rate : 24.000 fps
Color space : YUV
Chroma subsampling : 4:2:0
Bit depth : 8 bits
Scan type : Progressive
Bits/(Pixel*Frame) : 0.227
Stream size : 2.55 GiB (87%)
Title : U-571
Writing library : x264 core 115 r1995 c1e60b9
Encoding settings : cabac=1 / ref=9 / deblock=1:-1:-1 / analyse=0x3:0x113 / me=umh / subme=10 / psy=1 / psy_rd=1.00:0.15 / mixed_ref=1 / me_range=32 / chroma_me=1 / trellis=2 / 8x8dct=1 / cqm=0 / deadzone=21,11 / fast_pskip=0 / chroma_qp_offset=-3 / threads=2 / sliced_threads=0 / nr=0 / decimate=1 / interlaced=0 / bluray_compat=0 / constrained_intra=0 / bframes=9 / b_pyramid=2 / b_adapt=2 / b_bias=0 / direct=3 / weightb=1 / open_gop=0 / weightp=2 / keyint=250 / keyint_min=24 / scenecut=40 / intra_refresh=0 / rc_lookahead=40 / rc=2pass / mbtree=1 / bitrate=3213 / ratetol=1.0 / qcomp=0.70 / qpmin=10 / qpmax=51 / qpstep=4 / cplxblur=20.0 / qblur=0.5 / ip_ratio=1.40 / aq=2:1.00
Language : English

Audio
ID : 2
Format : AC-3
Format/Info : Audio Coding 3
Mode extension : CM (complete main)
Codec ID : A_AC3
Duration : 1h 55mn
Bit rate mode : Constant
Bit rate : 384 Kbps
Channel(s) : 6 channels
Channel positions : Front: L C R, Side: L R, LFE
Sampling rate : 48.0 KHz
Bit depth : 16 bits
Compression mode : Lossy
Stream size : 319 MiB (11%)
Title : Dub
Language : Russian







   Похожие торренты   Торрент   Размер 
В этой теме нет новых непрочитанных сообщений. Ю-571 / U-571 (2000) BDRip-AVC от 0ptimus | D, A | Open Matte

6 | 7

3.27 ГБ

В этой теме нет новых непрочитанных сообщений. Ю-571 / U-571 (2000) BDRip от Deadmauvlad | 2xA | Open Matte

112 | 12

2.18 ГБ

В этой теме нет новых непрочитанных сообщений. Ю-571 / U-571 (2000) BDRip-AVC от 0ptimus | D, A | Open Matte

39 | 19

4.21 ГБ

В этой теме нет новых непрочитанных сообщений. Ю-571 / U-571 (2000) BDRip 1080p от FREEISLAND | Open Matte

335 | 10

7.94 ГБ

В этой теме нет новых непрочитанных сообщений. Ю-571 / U-571 (2000) BDRip 720p от 0ptimus | D, A | Open Matte

1 | 2

9.27 ГБ

В этой теме нет новых непрочитанных сообщений. Ю-571 / U-571 (2000) BDRip 1080p от 0ptimus | D, A | Open Matte

2 | 8

14.5 ГБ

В этой теме нет новых непрочитанных сообщений. Ю-571 / U-571 (2000) BDRip 720p от KORSAR | D, A | Open Matte

13 | 0

9.77 ГБ




Вы не можете начинать темы
Вы не можете отвечать на сообщения
Вы не можете редактировать свои сообщения
Вы не можете удалять свои сообщения
Вы не можете добавлять вложения

Перейти:  
Для Мосгорсуда, Роскомнадзора и рекламодателей: mosgorsud-torrent[собачка]yandex.ru
 Вход
ppkBB3cker v.2 © 2008-2014 @ PPK
[ Time : 0.057s | 17 Queries | GZIP : Off ]

cron