img image001 image001 image001 image001 image001 image001 image001 image001 image001 image001 image001 image001 image001 image001 image001 image001
Planets Sun Sun Sun
Статистика раздачи
Автор: Снежана | Размер: 7.94 ГБ | Добавлен: 22 июл 2013
Раздают: 335    Качают: 10
Скачать торрент
Скачать торрент
Описание торрента

СообщениеДобавлено: 22 июл 2013 

#77


Информация о фильме
Название: Ю-571
Оригинальное название: U-571
Год выхода: 2000
Жанр: боевик, драма, военный
Режиссер: Джонатан Мостоу
В ролях: Мэттью МакКонахи, Билл Пэкстон, Харви Кейтель, Джон Бон Джови, Дэвид Кейт, Томас Кречманн, Джэйк Вебер, Джек Ноузворфи, Том Гуири, Уилл Эстес

О фильме:
1942 год. Немецкие подводные лодки хозяйничают в Атлантике. Радиоперехваты не дают союзникам ничего: сообщения противника не поддаются расшифровке.
И тогда американские моряки получают секретное задание: захватить вражескую субмарину U-571 и находящуюся на ее борту шифровальную машину «Энигма». Захватить... и вернуться обратно!



Страна: США , Франция
Продолжительность: 01:55:59
Перевод: Профессиональный (дублированный)

Файл
Кодек: H.264
Качество: BDRip 1080p
Видео: 1920x1080 (16:9), 24.000 fps, AVC, 9 365 Kbps
Звук: AC3, 448 Kbps, 48.0 KHz, 6 ch
Субтитры: Russian , English (srt)


Общее
Уникальный идентификатор : 221517572006695291135349930213309601398 (0xA6A6BB86024DA0768BF6324CA91AD676)
Полное имя : E:торрентU-571 (2000)BDRip-F.HD.mkv
Формат : Matroska
Версия формата : Version 2
Размер файла : 7,94 Гбайт
Продолжительность : 1 ч. 56 м.
Общий поток : 9795 Кбит/сек
Дата кодирования : UTC 2012-07-29 22:59:46
Программа кодирования : mkvmerge v5.7.0 ('The Whirlwind') built on Jul 8 2012 20:08:51
Библиотека кодирования : libebml v1.2.3 + libmatroska v1.3.0

Видео
Идентификатор : 1
Формат : AVC
Формат/Информация : Advanced Video Codec
Профиль формата : [email protected]
Параметр CABAC формата : Да
Параметр ReFrames формата : 4 кадра
Идентификатор кодека : V_MPEG4/ISO/AVC
Продолжительность : 1 ч. 56 м.
Битрейт : 9365 Кбит/сек
Ширина : 1920 пикселей
Высота : 1080 пикселей
Соотношение сторон : 16:9
Частота кадров : 24,000 кадра/сек
Цветовое пространство : YUV
Субдискретизация насыщенности : 4:2:0
Битовая глубина : 8 бит
Тип развёртки : Прогрессивная
Бит/(Пиксели*Кадры) : 0.188
Размер потока : 7,42 Гбайт (93%)
Библиотека кодирования : x264 core 125 r2200 999b753
Настройки программы : cabac=1 / ref=4 / deblock=1:-2:-2 / analyse=0x3:0x113 / me=umh / subme=10 / psy=1 / psy_rd=1.00:0.15 / mixed_ref=1 / me_range=32 / chroma_me=1 / trellis=2 / 8x8dct=1 / cqm=0 / deadzone=21,11 / fast_pskip=0 / chroma_qp_offset=-3 / threads=6 / lookahead_threads=1 / sliced_threads=0 / nr=0 / decimate=1 / interlaced=0 / bluray_compat=0 / constrained_intra=0 / bframes=7 / b_pyramid=2 / b_adapt=2 / b_bias=0 / direct=3 / weightb=1 / open_gop=0 / weightp=2 / keyint=240 / keyint_min=24 / scenecut=40 / intra_refresh=0 / rc=2pass / mbtree=0 / bitrate=9365 / ratetol=1.0 / qcomp=0.80 / qpmin=10 / qpmax=51 / qpstep=4 / cplxblur=20.0 / qblur=0.5 / ip_ratio=1.40 / pb_ratio=1.30 / aq=2:0.90
Язык : English
Default : Да
Forced : Нет
Основные цвета : BT.709-5, BT.1361, IEC 61966-2-4, SMPTE RP177
Характеристики трансфера : BT.709-5, BT.1361
Коэффициенты матрицы : BT.709-5, BT.1361, IEC 61966-2-4 709, SMPTE RP177

Аудио
Идентификатор : 2
Формат : AC-3
Формат/Информация : Audio Coding 3
Расширение режима : CM (complete main)
Параметр Endianness формата : Big
Идентификатор кодека : A_AC3
Продолжительность : 1 ч. 56 м.
Вид битрейта : Постоянный
Битрейт : 448 Кбит/сек
Каналы : 6 каналов
Расположение каналов : Front: L C R, Side: L R, LFE
Частота : 48,0 КГц
Битовая глубина : 16 бит
Метод сжатия : С потерями
Размер потока : 372 Мбайт (5%)
Язык : Russian
Default : Да
Forced : Нет

Текст #1
Идентификатор : 3
Формат : UTF-8
Идентификатор кодека : S_TEXT/UTF8
Идентификатор кодека/Информация : UTF-8 Plain Text
Default : Нет
Forced : Нет

Текст #2
Идентификатор : 4
Формат : UTF-8
Идентификатор кодека : S_TEXT/UTF8
Идентификатор кодека/Информация : UTF-8 Plain Text
Язык : English
Default : Нет
Forced : Нет

Меню
00:00:00.000 : en:Chapter 01
00:08:42.875 : en:Chapter 02
00:12:59.208 : en:Chapter 03
00:21:14.833 : en:Chapter 04
00:28:09.291 : en:Chapter 05
00:33:28.250 : en:Chapter 06
00:41:20.041 : en:Chapter 07
00:47:00.041 : en:Chapter 08
00:56:30.000 : en:Chapter 09
01:04:54.125 : en:Chapter 10
01:14:46.208 : en:Chapter 11
01:20:31.375 : en:Chapter 12
01:30:05.083 : en:Chapter 13
01:35:31.541 : en:Chapter 14
01:41:44.750 : en:Chapter 15
01:46:33.208 : en:Chapter 16




Релиз от:



   Похожие торренты   Торрент   Размер 
В этой теме нет новых непрочитанных сообщений. Ю-571 / U-571 (2000) BDRip 1080p от 0ptimus | D, A | Open Matte

2 | 8

14.5 ГБ

В этой теме нет новых непрочитанных сообщений. Гладиатор / Gladiator (2000) HDTVRip 1080p | D, P, A | Theatrical Cut | Open Matte

17 | 1

9.65 ГБ

В этой теме нет новых непрочитанных сообщений. Гладиатор / Gladiator (2000) HDTV 1080p | D, P, A | Theatrical Cut | Open Matte

3 | 1

21 ГБ

В этой теме нет новых непрочитанных сообщений. Доказательство жизни / Proof of Life (2000) WEB-DL 1080p | D, P, A | Open Matte

6 | 4

11.63 ГБ

В этой теме нет новых непрочитанных сообщений. Ангелы Чарли / Charlie's Angels (2000) WEB-DL 1080p | D, P, A | Open Matte

6 | 3

9.9 ГБ

В этой теме нет новых непрочитанных сообщений. Патриот / The Patriot (2000) HDTV 1080p | Theatrical cut | Open Matte | D, P

36 | 4

6.25 ГБ

В этой теме нет новых непрочитанных сообщений. Ю-571 / U-571 (2000) BDRip-AVC | Open Matte

14 | 3

2.92 ГБ




Вы не можете начинать темы
Вы не можете отвечать на сообщения
Вы не можете редактировать свои сообщения
Вы не можете удалять свои сообщения
Вы не можете добавлять вложения

Перейти:  
Для Мосгорсуда, Роскомнадзора и рекламодателей: mosgorsud-torrent[собачка]yandex.ru
 Вход
ppkBB3cker v.2 © 2008-2014 @ PPK
[ Time : 0.037s | 18 Queries | GZIP : Off ]

cron