img image001 image001 image001 image001 image001 image001 image001 image001 image001 image001 image001 image001 image001 image001 image001
Planets Sun Sun Sun
Статистика раздачи
Автор: Nickolas3434 | Размер: 1.39 ГБ | Добавлен: 09 июл 2017
Раздают: 61    Качают: 5
Скачать торрент
Скачать торрент
Описание торрента

СообщениеДобавлено: 09 июл 2017 



Наша группа ВКонтакте
Присоединяйтесь!

Затерянный город Z
The Lost City of Z
«Основано на реальной, но невероятной истории»


Страна: США
Жанр: боевик, драма, приключения, биография, история
Год выпуска: 2016
Продолжительность: 02:21:14
Перевод: Профессиональный (полное дублирование) [iTunes]
Субтитры: нет
Оригинальная аудиодорожка: нет
Режиссер: Джеймс Грэй / James Gray
В ролях: Чарли Ханнэм, Роберт Паттинсон, Сиенна Миллер, Том Холланд, Эдвард Эшли, Энгус МакФадьен, Иен МакДермид, Клайв Фрэнсис, Педро Коэльо, Мэтью Сандерлэнд, Йохан Майерс, Александр Йованович
Описание:
Эльдорадо, таинственная столица инков, загадочный Город Z... Вымысел или реальность? В 1925 году экспедиция полковника Фоссета, члена Королевского Географического общества, бесследно исчезла в джунглях Амазонии в поисках Города Z...

Релиз:
Автор рипа: stalkerok
Сэмпл
Качество видео: BDRip-AVC [The Lost City of Z (2016) 1080p BD-Remux HDCLUB]
Формат видео: MKV
Видео кодек: AVC
Аудио кодек: AC3
Видео: 1028 Кбит/сек, 972x406 (2.40:1), 23,976 кадр/сек, AVC
Аудио: русский, 384 Кбит/сек, 48 КГц, 16 бит, 5.1, AC3
Навигация по главам: есть

x264 [info]: frame I:1300 Avg QP:13.71 size: 46001
x264 [info]: frame P:35857 Avg QP:18.49 size: 12775
x264 [info]: frame B:166028 Avg QP:20.07 size: 3436
Общее
Уникальный идентификатор : 226356989018768123826271176806390836874 (0xAA4AC5342ACB9352B3275CC6FFC82E8A)
Полное имя : M:!!!!!!Rips2The Lost City of Z (2016)The.Lost.City.of.Z.2016.BDRip-AVC.RUS.stalkerok.new-team.mkv
Формат : Matroska
Версия формата : Version 4 / Version 2
Размер файла : 1,39 Гбайт
Продолжительность : 2 ч. 21 м.
Общий поток : 1413 Кбит/сек
Название фильма : The Lost City of Z (2016) (Rip by stalkerok)
Дата кодирования : UTC 2017-07-08 15:55:49
Программа кодирования : mkvmerge v8.6.1 ('Flying') 64bit
Библиотека кодирования : libebml v1.3.3 + libmatroska v1.4.4
Видео
Идентификатор : 1
Формат : AVC
Формат/Информация : Advanced Video Codec
Профиль формата : [email protected]
Параметр CABAC формата : Да
Параметр ReFrames формата : 16 кадров
Идентификатор кодека : V_MPEG4/ISO/AVC
Продолжительность : 2 ч. 21 м.
Битрейт : 1028 Кбит/сек
Ширина : 972 пикселя
Высота : 406 пикселей
Соотношение сторон : 2,40:1
Режим частоты кадров : Постоянный
Частота кадров : 23,976 (24000/1001) кадра/сек
Цветовое пространство : YUV
Субдискретизация насыщенности : 4:2:0
Битовая глубина : 8 бит
Тип развёртки : Прогрессивная
Бит/(Пиксели*Кадры) : 0.109
Размер потока : 1,01 Гбайт (73%)
Заголовок : The Lost City of Z (2016) (Rip by stalkerok)
Библиотека кодирования : x264 core 150 r2833kMod df79067
Настройки программы : cabac=1 / ref=16 / deblock=1:-3:-2 / analyse=0x3:0x133 / me=umh / subme=11 / psy=1 / fade_compensate=0.00 / psy_rd=1.00:0.00 / mixed_ref=1 / me_range=32 / chroma_me=1 / trellis=2 / 8x8dct=1 / cqm=0 / deadzone=21,11 / fast_pskip=0 / chroma_qp_offset=-2 / threads=12 / lookahead_threads=3 / sliced_threads=0 / nr=0 / decimate=0 / interlaced=0 / bluray_compat=0 / constrained_intra=0 / bframes=16 / b_pyramid=2 / b_adapt=2 / b_bias=0 / direct=3 / weightb=1 / open_gop=0 / weightp=2 / keyint=240 / keyint_min=23 / scenecut=40 / intra_refresh=0 / rc_lookahead=60 / rc=2pass / mbtree=0 / bitrate=1028 / ratetol=1.0 / qcomp=0.65 / qpmin=0 / qpmax=69 / qpstep=4 / cplxblur=20.0 / qblur=0.5 / vbv_maxrate=50000 / vbv_bufsize=62500 / nal_hrd=none / filler=0 / ip_ratio=1.40 / pb_ratio=1.30 / aq=3:0.85
Default : Да
Forced : Нет
Аудио
Идентификатор : 2
Формат : AC-3
Формат/Информация : Audio Coding 3
Расширение режима : CM (complete main)
Параметр Endianness формата : Big
Идентификатор кодека : A_AC3
Продолжительность : 2 ч. 21 м.
Вид битрейта : Постоянный
Битрейт : 384 Кбит/сек
Каналы : 6 каналов
Расположение каналов : Front: L C R, Side: L R, LFE
Частота : 48,0 КГц
Частота кадров : 31,250 кадров/сек (1536 spf)
Метод сжатия : С потерями
Размер потока : 388 Мбайт (27%)
Язык : Russian
Default : Да
Forced : Нет
Меню
00:00:00.000 : en:Chapter 1
00:08:21.750 : en:Chapter 2
00:15:32.847 : en:Chapter 3
00:21:29.037 : en:Chapter 4
00:27:10.045 : en:Chapter 5
00:34:57.637 : en:Chapter 6
00:44:59.112 : en:Chapter 7
00:49:36.431 : en:Chapter 8
00:58:25.918 : en:Chapter 9
01:04:43.336 : en:Chapter 10
01:11:10.599 : en:Chapter 11
01:21:22.292 : en:Chapter 12
01:27:42.421 : en:Chapter 13
01:30:42.854 : en:Chapter 14
01:39:46.229 : en:Chapter 15
01:43:59.983 : en:Chapter 16
01:51:40.193 : en:Chapter 17
01:56:11.088 : en:Chapter 18
02:01:43.045 : en:Chapter 19
02:08:34.372 : en:Chapter 20





   Похожие торренты   Торрент   Размер 
В этой теме нет новых непрочитанных сообщений. Затерянный город Z / The Lost City of Z (2016) BDRip-AVC от New-Team | iTunes

25 | 0

2.85 ГБ

В этой теме нет новых непрочитанных сообщений. Затерянный город Z / The Lost City of Z (2016) BDRip-AVC от New-Team | Лицензия

153 | 11

754.48 МБ

В этой теме нет новых непрочитанных сообщений. Затерянный город Z / The Lost City of Z (2016) BDRip-AVC от New-Team | Лицензия

201 | 12

2.87 ГБ

В этой теме нет новых непрочитанных сообщений. Затерянный город Z / The Lost City of Z (2016) BDRip-AVC от New-Team | Лицензия

126 | 9

1.5 ГБ

В этой теме нет новых непрочитанных сообщений. Затерянный город Z / The Lost City of Z (2016) BDRip-AVC от HELLYWOOD | iTunes

40 | 0

2.85 ГБ

В этой теме нет новых непрочитанных сообщений. Затерянный город Z / The Lost City of Z (2016) BDRip от ExKinoRay | iTunes

135 | 1

1.46 ГБ

В этой теме нет новых непрочитанных сообщений. Затерянный город Z / The Lost City of Z (2016) BDRip-AVC от HELLYWOOD | iTunes

43 | 1

1.4 ГБ




Вы не можете начинать темы
Вы не можете отвечать на сообщения
Вы не можете редактировать свои сообщения
Вы не можете удалять свои сообщения
Вы не можете добавлять вложения

Перейти:  
Для Мосгорсуда, Роскомнадзора и рекламодателей: mosgorsud-torrent[собачка]yandex.ru
 Вход
ppkBB3cker v.2 © 2008-2014 @ PPK
[ Time : 0.052s | 19 Queries | GZIP : Off ]

cron