img image001 image001 image001 image001 image001 image001 image001 image001 image001 image001 image001 image001 image001 image001 image001
Planets Sun Sun Sun
Статистика раздачи
Автор: Nickolas3434 | Размер: 10.63 ГБ | Добавлен: 12 янв 2018
Раздают: 0    Качают: 0
Скачать торрент
Скачать торрент
Описание торрента

СообщениеДобавлено: 12 янв 2018 

Волонтеры / Volunteers
Страна: США
Производство: TriStar Pictures, Silver Screen Partners, Home Box Office (HBO)
Год выпуска: 1985
Жанр: комедия
Продолжительность: 01:47:01
Режиссер: Николас Мейер
Авторы сценария: Кен Ливайн, Дэвид Исаак, Кит Критчлоу
В ролях: Том Хэнкс, Джон Кэнди, Рита Уилсон, Тим Томерсон, Гедде Ватанабэ, Джордж Плимптон, Эрнест Харада, Аллан Арбас, Ксандер Беркли
Описание: Богатый, избалованный Лоренс Борн III, имел какое угодно предназначение в этой жизни, но только не миротворческий корпус. Однако, едва закончив Йельский университет, он вынужден «поменяться местами» со своим соседом по студенческому общежитию из-за долга в 28 тыс. долларов местному букмейкеру.
Так он попадает в таиландскую деревушку, где ему предстоит «миротворить» ближайшие два года вместе с «товарищем по несчастью» Томом Таттлом. Но и здесь неприятности не заставили себя долго ждать. Когда коммунисты из «народной армии», ЦРУ и китайские опиумные короли затевают свои маневры, судьба маленькой деревушки оказывается в руках одного единственного воина миротворческого корпуса...

Перевод: Профессиональный (двухголосый) | ИНИС + Профессиональный (многоголосый) | Нева-1
Субтитры: русские, английские

Качество: WEB-DL 1080р
Формат: МКV
Видео кодек: AVC
Аудио кодек: АС3 | E-AC3
Видео: 1920x1080 (16:9), 29.970 fps, MPEG-4 AVC ~13.7 Mbps avg
Аудио №1: 48.0 kHz, AC3 Dolby Digital, 2/0 (L,R) ch, ~192 kbps | RUS / ИНИС
Аудио №2: 48.0 kHz, AC3 Dolby Digital, 1 ch, ~128 kbps | RUS / Нева-1
Аудио №3: 48.0 kHz, Enhanced AC3 Dolby Digital, 2/0 (L,R) ch, ~224 kbps | ENG
Формат субтитров: UTF-8 Plain Text
Дата премьеры (мир): 16 августа 1985

Дополнительная информация: оцифровка перевода от Нева-1 - Fikaloid, сихнронизация звука - Fikaloid
General
Unique ID : 291092960114543042820952348783417774802 (0xDAFE77004F8DC464E583A276BB7452D2)
Complete name : Volunteers. WEB-DL 1080p.mkv
Format : Matroska
Format version : Version 4 / Version 2
File size : 10.6 GiB
Duration : 1 h 47 min
Overall bit rate mode : Variable
Overall bit rate : 14.2 Mb/s
Encoded date : UTC 2018-01-01 09:43:55
Writing application : mkvmerge v19.0.0 ('Brave Captain') 64-bit
Writing library : libebml v1.3.5 + libmatroska v1.4.8
Video
ID : 1
Format : AVC
Format/Info : Advanced Video Codec
Format profile : [email protected]
Format settings : CABAC / 4 Ref Frames
Format settings, CABAC : Yes
Format settings, ReFrames : 4 frames
Codec ID : V_MPEG4/ISO/AVC
Duration : 1 h 47 min
Bit rate mode : Variable
Bit rate : 13.7 Mb/s
Maximum bit rate : 15.0 Mb/s
Width : 1 920 pixels
Height : 1 080 pixels
Display aspect ratio : 16:9
Frame rate mode : Constant
Frame rate : 29.970 (30000/1001) FPS
Color space : YUV
Chroma subsampling : 4:2:0
Bit depth : 8 bits
Scan type : Progressive
Bits/(Pixel*Frame) : 0.220
Stream size : 10.2 GiB (96%)
Language : English
Default : Yes
Forced : No
Color range : Limited
Color primaries : BT.709
Transfer characteristics : BT.709
Matrix coefficients : BT.709
Audio #1
ID : 2
Format : AC-3
Format/Info : Audio Coding 3
Codec ID : A_AC3
Duration : 1 h 47 min
Bit rate mode : Constant
Bit rate : 192 kb/s
Channel(s) : 2 channels
Channel positions : Front: L R
Sampling rate : 48.0 kHz
Frame rate : 31.250 FPS (1536 SPF)
Bit depth : 16 bits
Compression mode : Lossy
Stream size : 147 MiB (1%)
Title : ИНИС
Language : Russian
Service kind : Complete Main
Default : Yes
Forced : No
Audio #2
ID : 3
Format : AC-3
Format/Info : Audio Coding 3
Codec ID : A_AC3
Duration : 1 h 47 min
Bit rate mode : Constant
Bit rate : 128 kb/s
Channel(s) : 1 channel
Channel positions : Front: C
Sampling rate : 48.0 kHz
Frame rate : 31.250 FPS (1536 SPF)
Bit depth : 16 bits
Compression mode : Lossy
Stream size : 98.0 MiB (1%)
Title : Нева-1
Language : Russian
Service kind : Complete Main
Default : No
Forced : No
Audio #3
ID : 4
Format : E-AC-3
Format/Info : Enhanced Audio Coding 3
Codec ID : A_EAC3
Duration : 1 h 47 min
Bit rate mode : Constant
Bit rate : 224 kb/s
Channel(s) : 2 channels
Channel positions : Front: L R
Sampling rate : 48.0 kHz
Frame rate : 187.500 FPS (256 SPF)
Compression mode : Lossy
Stream size : 171 MiB (2%)
Language : English
Service kind : Complete Main
Default : No
Forced : No
Text #1
ID : 5
Format : UTF-8
Codec ID : S_TEXT/UTF8
Codec ID/Info : UTF-8 Plain Text
Duration : 1 h 43 min
Bit rate : 104 b/s
Count of elements : 1083
Stream size : 79.1 KiB (0%)
Language : Russian
Default : No
Forced : No
Text #2
ID : 6
Format : UTF-8
Codec ID : S_TEXT/UTF8
Codec ID/Info : UTF-8 Plain Text
Duration : 1 h 43 min
Bit rate : 78 b/s
Count of elements : 1695
Stream size : 59.1 KiB (0%)
Language : English
Default : No
Forced : No



   Похожие торренты   Торрент   Размер 
В этой теме нет новых непрочитанных сообщений. Волонтёры / Volunteers (1985) DVDRip

33 | 4

1.37 ГБ

В этой теме нет новых непрочитанных сообщений. Волонтеры / Volunteers (1985) WEB-DLRip от Koenig | P2, P

10 | 1

1.45 ГБ

В этой теме нет новых непрочитанных сообщений. El Pino And The Volunteers - El Pino and the Volunteers (2016) FLAC

21 | 7

243.55 МБ

В этой теме нет новых непрочитанных сообщений. В ночи / Into the Night (1985) BDRemux 1080р | P, P2

3 | 0

27.16 ГБ

В этой теме нет новых непрочитанных сообщений. Обитель / Tenement (1985) BDRemux 1080р | L1

0 | 0

14.06 ГБ

В этой теме нет новых непрочитанных сообщений. Рокки 4 / Rocky IV (1985) BDRip 1080р от Freeisland

110 | 26

4.37 ГБ

В этой теме нет новых непрочитанных сообщений. Демоны / Demoni (1985) BDRip 1080р от Freeisland

6 | 7

5.32 ГБ




Вы не можете начинать темы
Вы не можете отвечать на сообщения
Вы не можете редактировать свои сообщения
Вы не можете удалять свои сообщения
Вы не можете добавлять вложения

Перейти:  
Для Мосгорсуда, Роскомнадзора и рекламодателей: mosgorsud-torrent[собачка]yandex.ru
 Вход
ppkBB3cker v.2 © 2008-2014 @ PPK
[ Time : 0.057s | 18 Queries | GZIP : Off ]

cron