img image001 image001 image001 image001 image001 image001 image001 image001 image001 image001 image001 image001 image001 image001 image001 image001
Planets Sun Sun Sun
Статистика раздачи
Автор: Nickolas3434 | Размер: 5.22 ГБ | Добавлен: 12 янв 2018
Раздают: 0    Качают: 0
Скачать торрент
Скачать торрент
Описание торрента

СообщениеДобавлено: 12 янв 2018 

Информация о фильме
Название: Фарфоровая луна
Оригинальное название: China Moon
Год выпуска: 1991
Жанр: триллер, мелодрама, криминал, детектив
Режиссер: Джон Бэйли
В ролях: Эд Харрис (Kyle Bodine), Мэделин Стоу (Rachel Munro), Бенисио Дель Торо (Lamar Dickey), Чарльз Дэнс (Rupert Munro), Патриция Хили (Adele), Тим Пауэлл (Fraker), Прюитт Тэйлор Винс (Daryl Jeeters), Ларри Шулер (Patrolman at Turner's), Роб Эдвард Моррис (Officer Pinola), Пол Дэрби (CSU Photographer), Тереза Бин (Felicity Turner), Аллен Принц (Assistant M.E.)
О фильме:
Полицейский влюбляется в замужнюю женщину, у которой очень плохие отношения с мужем. Муж изменял ей, оскорблял ее, бил, она дважды пыталась развестись с ним. Наконец-то решилась бесповоротно, и вместе с новым возлюбленным поехала домой за вещами. И тут неожиданно пришел благоверный. Между супругами вспыхнула ссора. Он швырнул ее об стену, она выхватила пистолет и выпустила в мужа две пули. Полицейский вынужден помочь ей избавиться от тела и улик и вскоре уже выступать следователем как бы своего собственного преступления.

MPAA: R - Лицам до 17 лет обязательно присутствие взрослого
Страна: США
Студия: Tig Productions
Продолжительность: 01:39:56
Перевод: Профессиональный (двухголосый, закадровый), Авторский (одноголосый, закадровый), Любительский (одноголосый, закадровый)
Файл
Качество: BDRip 720p
Формат: Matroska
Видео: 1280x548 at 23.976 fps, x264, ~5200 kbps avg
Аудио#1: Russian: 48 kHz, AC3, 2/0 (L,R) ch, ~192 kbps avg |Двухголосый закадровый, НТВ+|
Аудио#2: Russian: 48 kHz, AC3, 2/0 (L,R) ch, ~192 kbps avg |Авторский, С.Визгунов|
Аудио#3: Russian: 48 kHz, AC3, 2/0 (L,R) ch, ~192 kbps avg |Любительский, М.Бирюков|
Аудио#4: English: 48 kHz, DTS, 2/0 (L,R) ch, ~1509 kbps avg
Аудио#5: English: 48 kHz, AC3, 2/0 (L,R) ch, ~192 kbps avg |Commentary by Director John Bailey and Co-Editor Carol Littleton|
Субтитры: Russian, English
***Сохранены оригинальные главы как на Blu-ray.
***Релиз: porvaliparus.
Общее
Уникальный идентификатор : 287881791487201632266863005398410754355 (0xD894042A115E6F2322DC73966D6C7933)
Полное имя : China.Moon.1991.BDRip.720p.mkv
Формат : Matroska
Версия формата : Version 4 / Version 2
Размер файла : 5,22 Гбайт
Продолжительность : 1 ч. 39 м.
Общий поток : 7481 Кбит/сек
Название фильма : China.Moon.1991.BDRip.720p-porvaliparus
Дата кодирования : UTC 2018-01-08 10:39:57
Программа кодирования : mkvmerge v19.0.0 ('Brave Captain') 64-bit
Библиотека кодирования : libebml v1.3.5 + libmatroska v1.4.8
Видео
Идентификатор : 1
Формат : AVC
Формат/Информация : Advanced Video Codec
Профиль формата : [email protected]
Параметр CABAC формата : Да
Параметр ReFrames формата : 11 кадров
Идентификатор кодека : V_MPEG4/ISO/AVC
Продолжительность : 1 ч. 39 м.
Битрейт : 5200 Кбит/сек
Ширина : 1280 пикселей
Высота : 548 пикселей
Соотношение сторон : 2,35:1
Режим частоты кадров : Постоянный
Частота кадров : 23,976 кадра/сек
Цветовое пространство : YUV
Субдискретизация насыщенности : 4:2:0
Битовая глубина : 8 бит
Тип развёртки : Прогрессивная
Бит/(Пиксели*Кадры) : 0.309
Размер потока : 3,53 Гбайт (68%)
Заголовок : China.Moon.1991.BDRip.720p
Библиотека кодирования : x264 core 152 r2851 ba24899
Настройки программы : cabac=1 / ref=11 / deblock=1:-3:-3 / analyse=0x3:0x133 / me=umh / subme=11 / psy=1 / psy_rd=1.00:0.10 / mixed_ref=1 / me_range=32 / chroma_me=1 / trellis=2 / 8x8dct=1 / cqm=0 / deadzone=21,11 / fast_pskip=0 / chroma_qp_offset=-3 / threads=12 / lookahead_threads=3 / sliced_threads=0 / nr=0 / decimate=1 / interlaced=0 / bluray_compat=0 / constrained_intra=0 / bframes=10 / b_pyramid=2 / b_adapt=2 / b_bias=0 / direct=3 / weightb=1 / open_gop=0 / weightp=2 / keyint=250 / keyint_min=23 / scenecut=40 / intra_refresh=0 / rc_lookahead=40 / rc=2pass / mbtree=0 / bitrate=5200 / ratetol=1.0 / qcomp=0.60 / qpmin=0 / qpmax=69 / qpstep=4 / cplxblur=20.0 / qblur=0.5 / vbv_maxrate=50000 / vbv_bufsize=62500 / nal_hrd=none / filler=0 / ip_ratio=1.40 / pb_ratio=1.30 / aq=1:0.80
Default : Да
Forced : Нет
Аудио #1
Идентификатор : 2
Формат : AC-3
Формат/Информация : Audio Coding 3
Расширение режима : CM (complete main)
Параметр Endianness формата : Big
Идентификатор кодека : A_AC3
Продолжительность : 1 ч. 39 м.
Вид битрейта : Постоянный
Битрейт : 192 Кбит/сек
Каналы : 2 канала
Расположение каналов : Front: L R
Частота : 48,0 КГц
Битовая глубина : 16 бит
Метод сжатия : С потерями
Размер потока : 137 Мбайт (3%)
Заголовок : DVO [НТВ+]
Язык : Russian
Default : Да
Forced : Нет
Аудио #2
Идентификатор : 3
Формат : AC-3
Формат/Информация : Audio Coding 3
Расширение режима : CM (complete main)
Параметр Endianness формата : Big
Идентификатор кодека : A_AC3
Продолжительность : 1 ч. 39 м.
Вид битрейта : Постоянный
Битрейт : 192 Кбит/сек
Каналы : 2 канала
Расположение каналов : Front: L R
Частота : 48,0 КГц
Битовая глубина : 16 бит
Метод сжатия : С потерями
Размер потока : 137 Мбайт (3%)
Заголовок : AVO [С. Визгунов]
Язык : Russian
Default : Нет
Forced : Нет
Аудио #3
Идентификатор : 4
Формат : AC-3
Формат/Информация : Audio Coding 3
Расширение режима : CM (complete main)
Параметр Endianness формата : Big
Идентификатор кодека : A_AC3
Продолжительность : 1 ч. 39 м.
Вид битрейта : Постоянный
Битрейт : 192 Кбит/сек
Каналы : 2 канала
Расположение каналов : Front: L R
Частота : 48,0 КГц
Битовая глубина : 16 бит
Метод сжатия : С потерями
Размер потока : 137 Мбайт (3%)
Заголовок : VO [М. Бирюков]
Язык : Russian
Default : Нет
Forced : Нет
Аудио #4
Идентификатор : 5
Формат : DTS
Формат/Информация : Digital Theater Systems
Режим : 16
Параметр Endianness формата : Big
Идентификатор кодека : A_DTS
Продолжительность : 1 ч. 39 м.
Вид битрейта : Постоянный
Битрейт : 1509 Кбит/сек
Каналы : 2 канала
Расположение каналов : Front: L R
Частота : 48,0 КГц
Битовая глубина : 16 бит
Метод сжатия : С потерями
Размер потока : 1,05 Гбайт (20%)
Язык : English
Default : Нет
Forced : Нет
Аудио #5
Идентификатор : 6
Формат : AC-3
Формат/Информация : Audio Coding 3
Расширение режима : CM (complete main)
Параметр Endianness формата : Big
Идентификатор кодека : A_AC3
Продолжительность : 1 ч. 39 м.
Вид битрейта : Постоянный
Битрейт : 192 Кбит/сек
Каналы : 2 канала
Расположение каналов : Front: L R
Частота : 48,0 КГц
Битовая глубина : 16 бит
Метод сжатия : С потерями
Размер потока : 137 Мбайт (3%)
Заголовок : Commentary by Director John Bailey and Co-Editor Carol Littleton
Язык : English
Default : Нет
Forced : Нет
Текст #1
Идентификатор : 7
Формат : UTF-8
Идентификатор кодека : S_TEXT/UTF8
Идентификатор кодека/Информация : UTF-8 Plain Text
Заголовок : Gabem, Bandittious, KOS, WooD
Язык : Russian
Default : Нет
Forced : Нет
Текст #2
Идентификатор : 8
Формат : UTF-8
Идентификатор кодека : S_TEXT/UTF8
Идентификатор кодека/Информация : UTF-8 Plain Text
Язык : English
Default : Нет
Forced : Нет
Меню
00:00:00.000 : en:Chapter 1
00:09:25.565 : en:Chapter 2
00:18:52.048 : en:Chapter 3
00:29:01.365 : en:Chapter 4
00:44:23.202 : en:Chapter 5
00:57:59.142 : en:Chapter 6
01:10:13.876 : en:Chapter 7
01:25:18.530 : en:Chapter 8



   Похожие торренты   Торрент   Размер 
В этой теме нет новых непрочитанных сообщений. Фарфоровая луна / China Moon (1991) BDRip от Koenig | P2

0 | 0

1.45 ГБ

В этой теме нет новых непрочитанных сообщений. Фарфоровая луна / China Moon (1991) DVDRip

6 | 3

837.59 МБ

В этой теме нет новых непрочитанных сообщений. Фарфоровая луна / China Moon (1991) BDRemux 1080р | P2, A, L1

15 | 5

18.07 ГБ

В этой теме нет новых непрочитанных сообщений. Фарфоровая луна / China Moon (1991) HDTV 1080i | P2

32 | 2

3.61 ГБ

В этой теме нет новых непрочитанных сообщений. Фарфоровая луна / China Moon (1991) HDRip-AVC от Kaztorrents | P2

28 | 0

1.46 ГБ

В этой теме нет новых непрочитанных сообщений. Фарфоровая луна / China Moon (1994) HDTVRip 720p | P2

248 | 52

1.58 ГБ

В этой теме нет новых непрочитанных сообщений. Фарфоровая луна / China Moon (1994) DVD5 | A

0 | 2

4.3 ГБ




Вы не можете начинать темы
Вы не можете отвечать на сообщения
Вы не можете редактировать свои сообщения
Вы не можете удалять свои сообщения
Вы не можете добавлять вложения

Перейти:  
Для Мосгорсуда, Роскомнадзора и рекламодателей: mosgorsud-torrent[собачка]yandex.ru
 Вход
ppkBB3cker v.2 © 2008-2014 @ PPK
[ Time : 0.038s | 19 Queries | GZIP : Off ]

cron