img image001 image001 image001 image001 image001 image001 image001 image001 image001 image001 image001 image001 image001 image001 image001

Planets Sun Sun Sun
Статистика раздачи
Автор: Nickolas3434 | Размер: 1.46 ГБ | Добавлен: 12 янв 2018
Раздают: 470    Качают: 13
Скачать торрент
Скачать торрент
Описание торрента

СообщениеДобавлено: 12 янв 2018 

✦ Пираты Сомали / The Pirates of Somalia✦

Информация о фильме:
❖ Год выпуска: 2017
❖ Страна: Сомали, Кения, Судан, ЮАР, США / BCDF Pictures, Hungry Man, Kalahari Pictures
❖ Жанр: драма, биография
❖ Перевод: Любительский (многоголосый, закадровый) | [Синема УС]
❖ Продолжительность: 01:57:41
❖ Режиссер: Брайан Бакли
❖ В ролях: Аль Пачино, Эван Питерс, Мелани Гриффит, Баркхад Абди, Расселл Познер, Корал Пенья, Киана Мадани, Филип Эттинджер, Эйдан Уайток
❖ Релиз от:
❖ Автор рипа: ProT1gR
Описание фильма:
В 2008 году журналист-новобранец Джей Бахадур формирует полусырой план по внедрению себя в банду пиратов Сомали. В конечном счёте он добивается своего и первым смотрит изнутри на то, кто такие эти люди, как они живут, и что за силы ими управляют...

Технические данные файла:
❖ Качество: WEB-DLRip-AVC (Исх. WEB-DL 1080р[/b])
❖ Формат: MKV
❖ Видео: 1024x424 (2.40:1), 23.976 fps, MPEG-4 AVC ~ 1 568 kbps (0.151 bit/pixel)
❖ Аудио: AC3, 48.0 KHz, 6 ch, 384 kbps
General
Unique ID : 233844812946902119871191323518440407269 (0xAFECDF6D2916AC158E4397D4896D80E5)
Complete name : X:x264The Pirates of Somalia.(2017).WEB-DLRip-AVC.[Kaztorrents].mkv
Format : Matroska
Format version : Version 2
File size : 1.46 GiB
Duration : 1 h 57 min
Overall bit rate : 1 771 kb/s
Encoded date : UTC 2018-01-09 23:23:58
Writing application : mkvmerge v7.8.0 ('River Man') 32bit built on Apr 3 2015 12:11:22
Writing library : libebml v1.3.1 + libmatroska v1.4.2
Video
ID : 1
Format : AVC
Format/Info : Advanced Video Codec
Format profile : [email protected]
Format settings, CABAC : Yes
Format settings, ReFrames : 12 frames
Codec ID : V_MPEG4/ISO/AVC
Duration : 1 h 57 min
Bit rate : 1 580 kb/s
Width : 1 024 pixels
Height : 424 pixels
Display aspect ratio : 2.40:1
Frame rate mode : Constant
Frame rate : 23.976 (24000/1001) FPS
Color space : YUV
Chroma subsampling : 4:2:0
Bit depth : 8 bits
Scan type : Progressive
Bits/(Pixel*Frame) : 0.152
Stream size : 1.27 GiB (87%)
Writing library : x264 core 146 r2538 121396c
Encoding settings : cabac=1 / ref=12 / deblock=1:-3:-3 / analyse=0x3:0x113 / me=umh / subme=11 / psy=1 / psy_rd=1.00:0.00 / mixed_ref=1 / me_range=48 / chroma_me=1 / trellis=2 / 8x8dct=1 / cqm=0 / deadzone=21,11 / fast_pskip=0 / chroma_qp_offset=-2 / threads=6 / lookahead_threads=1 / sliced_threads=0 / nr=0 / decimate=0 / interlaced=0 / bluray_compat=0 / constrained_intra=0 / bframes=12 / b_pyramid=2 / b_adapt=2 / b_bias=0 / direct=3 / weightb=1 / open_gop=0 / weightp=2 / keyint=240 / keyint_min=23 / scenecut=40 / intra_refresh=0 / rc_lookahead=40 / rc=2pass / mbtree=0 / bitrate=1580 / ratetol=1.0 / qcomp=0.60 / qpmin=0 / qpmax=69 / qpstep=4 / cplxblur=20.0 / qblur=0.5 / vbv_maxrate=50000 / vbv_bufsize=62500 / nal_hrd=none / filler=0 / ip_ratio=1.40 / pb_ratio=1.30 / aq=1:1.10
Default : Yes
Forced : No
Audio
ID : 2
Format : AC-3
Format/Info : Audio Coding 3
Mode extension : CM (complete main)
Format settings, Endianness : Big
Codec ID : A_AC3
Duration : 1 h 57 min
Bit rate mode : Constant
Bit rate : 192 kb/s
Channel(s) : 2 channels
Channel positions : Front: L R
Sampling rate : 48.0 kHz
Frame rate : 31.250 FPS (1536 spf)
Bit depth : 16 bits
Compression mode : Lossy
Stream size : 162 MiB (11%)
Default : Yes
Forced : No





   Похожие торренты   Торрент   Размер 
В этой теме нет новых непрочитанных сообщений. Пираты Сомали / The Pirates of Somalia (2017) WEB-DLRip | L

777 | 21

2.18 ГБ

В этой теме нет новых непрочитанных сообщений. Пираты Сомали / The Pirates of Somalia (2017) WEB-DLRip от Portablius | L

170 | 6

699.42 МБ

В этой теме нет новых непрочитанных сообщений. Пираты Сомали / The Pirates of Somalia (2017) WEB-DL 1080р | L

458 | 29

4.19 ГБ

В этой теме нет новых непрочитанных сообщений. Пираты Карибского моря: Мертвецы не рассказывают сказки / Pirates of the Caribbean: Dead Men Tell No Tales (2017) HDRip от Kaztorrents | D

78 | 4

490.98 МБ

В этой теме нет новых непрочитанных сообщений. Ледовые пираты / Ледяные пираты / The Ice Pirates (1984) WEB-DLRip | P

144 | 24

1.38 ГБ

В этой теме нет новых непрочитанных сообщений. Пираты Карибского моря: Мертвецы не рассказывают сказки / Pirates of the Caribbean: Dead Men Tell No Tales (2017) WEB-DLRip | L2

1160 | 53

2.02 ГБ

В этой теме нет новых непрочитанных сообщений. Пираты Карибского моря: Мертвецы не рассказывают сказки / Pirates of the Caribbean: Dead Men Tell No Tales (2017) WEB-DLRip | L2

1863 | 65

1.35 ГБ




Вы не можете начинать темы
Вы не можете отвечать на сообщения
Вы не можете редактировать свои сообщения
Вы не можете удалять свои сообщения
Вы не можете добавлять вложения

Перейти:  
Для Мосгорсуда, Роскомнадзора и рекламодателей: mosgorsud-torrent[собачка]yandex.ru
 Вход
ppkBB3cker v.2 © 2008-2014 @ PPK
[ Time : 2.534s | 18 Queries | GZIP : Off ]

cron