img image001 image001 image001 image001 image001 image001 image001 image001 image001 image001 image001 image001 image001 image001 image001
Planets Sun Sun Sun
Статистика раздачи
Автор: Nickolas3434 | Размер: 2.18 ГБ | Добавлен: 15 янв 2018
Раздают: 5    Качают: 0
Скачать торрент
Скачать торрент
Описание торрента

СообщениеДобавлено: 15 янв 2018 




Информация о фильме
Название: Убийца / Точка невозврата
Оригинальное название: Point of No Return
Год выхода: 1993
Жанр: Боевик, триллер, криминал
Режиссер: Джон Бэдэм
В ролях: Бриджет Фонда, Гэбриэл Бирн, Дермот Малруни, Харви Кейтель, Мигель Феррер, Энн Бэнкрофт, Оливия д’Або, Ричард Романус, Лоррейн Туссен
О фильме:
Главная героиня фильма антисоциальная личность и просто настоящий изгой. Её никогда не принимало общество, и самое страшное её обвинили в убийстве и приговорили к смертной казни. Однако, некая секретная служба решила сделать из неё настоящего убийцу-профессионала. Только убивая по приказу, главная героиня сможет избежать смертной казни, сохранить себе жизнь. Её новая жизнь настолько ужасна, что она сама не знает что для неё лучше. Возможно, умереть было бы легче, чем убивать и пытаться выжить в этом жестком мире…

Страна: США
Студия: Art Linson Productions, Warner Bros. Pictures
Продолжительность: 01:48:20
Перевод: Профессиональный (полное дублирование)
Файл
Формат: MKV
Качество: BDRip-AVC [Point of No Return.(1993).BDRemux]
Видео: [email protected], 1018x426, ~2426 Кбит/с, 0.233 Bits/(Pixel*Frame)
Аудио: AC3, 6ch, ~448 kbps
Субтитры: Русские, английские
General
Unique ID : 115896931680600489473074003072697206076 (0x5730EFE7019F83167CEEAB1DEBCB853C)
Complete name : F:FILMSТочка невозврата.(1993).BDRIP-AVC.[-=DoMiNo=-].mkv
Format : Matroska
Format version : Version 4 / Version 2
File size : 2.18 GiB
Duration : 1 h 48 min
Overall bit rate : 2 877 kb/s
Movie name : Убийца
Deion : Жестокая, напичканная наркотиками, она была обвинена в убийстве и приговорена к смерти. Но секретная государственная служба превратила эту женщину из обитательницы камеры смертников в убийцу-профессионала, живущего взаймы…
Writing application : XviD4PSP 7.0.438 DAILY
Writing library : Lavf57.71.100
ErrorDetectionType : Per level 1
Attachments : poster.jpg
COMPOSER : Ханс Циммер
COUNTRY : США
DATE : 1993
DIRECTOR : Джон Бэдэм
ENCODING_INFO : MATROSKA,WEBM > MKV / VC1 > X264 VBR-2P 2426kbps Пользовательский / AC3 > COPY Безопасное
GENRE : боевик, триллер, драма, криминал
HD_VIDEO : 1
IMDB_RATING : 6.00
ITUNEXTC : mpaa|R|400|
Language : und
MEDIA_TYPE : 9
ORIGINAL_ACTORS : Bridget Fonda, Gabriel Byrne, Dermot Mulroney, Miguel Ferrer, Anne Bancroft, Olivia d'Abo, Richard Romanus, Harvey Keitel, Lorraine Toussaint, Geoffrey Lewis, Mic Rodgers, Michael Rapaport, Ray Oriel, Spike McClure, Lieux Dressler, John Capodice, Carmen Zapata, Calvin Levels, Michael Runyard, Bill M. Ryusaki, Jan Speck, Francesco Messina, Peter Mark Vasquez, Wendy L. Davies, James Handy, Lee Dupree, David Sosna, Bruce Barnes, Jaqueline Koch, Kenny Endoso, Gary Kasper, Rosalind Jue, Eric Cohen, François Chau, Joe Garcia, Frank Girardeau, Clark Heathcliff Brolly (в титрах: Clark Heathcliffe Brolly), Jodie Markell, Robert Harvey, Harry Perry, Robert Apisa, John Badham, Richard Chapman Jr., Jay Speed Forney, Robert Gruenberg Jr., Bob Gunter, Leon Herbert, Robert Hines, David R. Maier, Ronnie Rondell Jr., Michael W. Watkins, Coffee Wright
ORIGINAL_TITLE : Point of No Return
PRODUCER : Арт Линсон, Ди Джей Карузо, Джеймс Херберт, Дэвид Сосна
RATING : 7.005
WRITER : Люк Бессон, Роберт Гетчелл, Александра Серос
Video
ID : 1
Format : AVC
Format/Info : Advanced Video Codec
Format profile : [email protected]
Format settings : CABAC / 11 Ref Frames
Format settings, CABAC : Yes
Format settings, ReFrames : 11 frames
Codec ID : V_MPEG4/ISO/AVC
Duration : 1 h 48 min
Bit rate : 2 426 kb/s
Width : 1 018 pixels
Height : 426 pixels
Display aspect ratio : 2.40:1
Frame rate mode : Constant
Frame rate : 23.976 (24000/1001) FPS
Color space : YUV
Chroma subsampling : 4:2:0
Bit depth : 8 bits
Scan type : Progressive
Bits/(Pixel*Frame) : 0.233
Stream size : 1.80 GiB (82%)
Title : RIP_BY_-=DoMiNo=-
Writing library : x264 core 155 r2893M b00bcaf
Encoding settings : cabac=1 / ref=11 / deblock=1:-3:-3 / analyse=0x3:0x133 / me=umh / subme=11 / psy=1 / psy_rd=1.00:0.15 / mixed_ref=1 / me_range=56 / chroma_me=1 / trellis=2 / 8x8dct=1 / cqm=0 / deadzone=21,11 / fast_pskip=0 / chroma_qp_offset=-3 / threads=5 / lookahead_threads=1 / sliced_threads=0 / nr=0 / decimate=1 / interlaced=0 / bluray_compat=0 / constrained_intra=0 / bframes=12 / b_pyramid=2 / b_adapt=2 / b_bias=0 / direct=3 / weightb=1 / open_gop=0 / weightp=2 / keyint=240 / keyint_min=24 / scenecut=40 / intra_refresh=0 / rc=2pass / mbtree=0 / bitrate=2426 / ratetol=1.0 / qcomp=0.70 / qpmin=0 / qpmax=69 / qpstep=4 / cplxblur=20.0 / qblur=0.5 / ip_ratio=1.40 / pb_ratio=1.30 / aq=1:1.00
Language : English
Default : Yes
Forced : No
Color range : Limited
Color primaries : BT.709
Transfer characteristics : BT.709
Matrix coefficients : BT.709
Audio
ID : 2
Format : AC-3
Format/Info : Audio Coding 3
Codec ID : A_AC3
Duration : 1 h 48 min
Bit rate mode : Constant
Bit rate : 448 kb/s
Channel(s) : 6 channels
Channel positions : Front: L C R, Side: L R, LFE
Sampling rate : 48.0 kHz
Frame rate : 31.250 FPS (1536 SPF)
Bit depth : 16 bits
Compression mode : Lossy
Stream size : 347 MiB (16%)
Title : DUB
Language : Russian
Service kind : Complete Main
Default : Yes
Forced : No
Text #1
ID : 3
Format : UTF-8
Codec ID : S_TEXT/UTF8
Codec ID/Info : UTF-8 Plain Text
Language : Russian
Default : Yes
Forced : No
Text #2
ID : 4
Format : UTF-8
Codec ID : S_TEXT/UTF8
Codec ID/Info : UTF-8 Plain Text
Language : English
Default : No
Forced : No
Menu
00:00:00.000 : :Chapter 1
00:05:29.203 : :Chapter 2
00:08:33.846 : :Chapter 3
00:12:25.077 : :Chapter 4
00:16:06.924 : :Chapter 5
00:17:54.656 : :Chapter 6
00:21:55.689 : :Chapter 7
00:26:57.949 : :Chapter 8
00:29:32.270 : :Chapter 9
00:32:17.852 : :Chapter 10
00:39:53.265 : :Chapter 11
00:42:29.880 : :Chapter 12
00:47:20.003 : :Chapter 13
00:50:42.789 : :Chapter 14
00:53:55.357 : :Chapter 15
00:55:33.330 : :Chapter 16
00:59:54.173 : :Chapter 17
01:01:48.371 : :Chapter 18
01:05:42.897 : :Chapter 19
01:09:17.778 : :Chapter 20
01:16:18.907 : :Chapter 21
01:19:22.048 : :Chapter 22
01:21:55.869 : :Chapter 23
01:24:41.076 : :Chapter 24
01:27:47.303 : :Chapter 25
01:30:10.196 : :Chapter 26
01:35:18.587 : :Chapter 27
01:39:25.376 : :Chapter 28
01:42:53.876 : :Chapter 29
01:44:51.368 : :Chapter 30
01:48:20.118 : :Chapter 31



   Похожие торренты   Торрент   Размер 
В этой теме нет новых непрочитанных сообщений. Убийца / Точка невозврата / Point of No Return (1993) BDRip | P

31 | 5

1.46 ГБ

В этой теме нет новых непрочитанных сообщений. Убийца / Точка невозврата / Point of No Return (1993) BDRip-AVC | D, A

28 | 10

3.57 ГБ

В этой теме нет новых непрочитанных сообщений. Убийца / Точка невозврата / Point of No Return (1993) BDRip-AVC от ExKinoRay | D

43 | 2

745.71 МБ

В этой теме нет новых непрочитанных сообщений. Точка невозврата / Убийца / Point of No Return (1993) BDRip 1080p | D, A

20 | 8

13.84 ГБ

В этой теме нет новых непрочитанных сообщений. Точка невозврата [Убийца] / Point of No Return (1993) BDRip от HQ-VIDEO

4 | 7

2.18 ГБ

В этой теме нет новых непрочитанных сообщений. Убийца / Точка невозврата / Point of No Return (1993) BDRip 720p

2 | 3

3.4 ГБ

В этой теме нет новых непрочитанных сообщений. Убийца / Точка невозврата / Point of No Return (1993) BDRip 720p | D, P, A

4 | 0

7.23 ГБ




Вы не можете начинать темы
Вы не можете отвечать на сообщения
Вы не можете редактировать свои сообщения
Вы не можете удалять свои сообщения
Вы не можете добавлять вложения

Перейти:  
Для Мосгорсуда, Роскомнадзора и рекламодателей: mosgorsud-torrent[собачка]yandex.ru
 Вход
ppkBB3cker v.2 © 2008-2014 @ PPK
[ Time : 0.045s | 18 Queries | GZIP : Off ]

cron