img image001 image001 image001 image001 image001 image001 image001 image001 image001 image001 image001 image001 image001 image001 image001
Planets Sun Sun Sun
Статистика раздачи
Автор: Nickolas3434 | Размер: 23.75 ГБ | Добавлен: 22 янв 2018
Раздают: 21    Качают: 9
Скачать торрент
Скачать торрент
Описание торрента

СообщениеДобавлено: 22 янв 2018 

Информация о фильме
Название: Борг/Макинрой
Оригинальное название: Borg McEnroe
Год выхода: 2017
Жанр: Драма, биография, спорт
Режиссер: Янус Мец
В ролях: Сверрир Гуднасон, Шайа ЛаБаф, Стеллан Скарсгард, Тува Новотны, Лео Борг, Маркус Моссберг, Джексон Гэнн, Скотт Артур, Йен Блэкман, Роберт Эммс
О фильме:
Добро пожаловать в храм тенниса – центральный корт Уимблдона. Здесь в 1980 году разгорелась битва огня и льда, которая изменила мир современного тенниса навсегда. Это идеальное соперничество между игроком у задней линии и отчаянным сеточником. Берн Борг расчетливый и стойкий, как шведская скала. Он первая ракетка мира четырежды завоевавший кубок Уимблдона и нацелен превзойти свой результат. Джон Макинрой - прямая противоположность Боргу, молодая, восходящая звезда тенниса из Америки, обладающая взрывным характером, впервые вышедший в финал Уимблдона. Как оба достигли столь высоких результатов? В этом поможет разобраться биографический фильм. Битва начинается…

Страна: Швеция, Дания, Финляндия
Студия: SF Studios Production AB, Danish Film Institute, Film i Väst
Продолжительность: 01:47:52
Перевод: Дублированный | iTunes
Файл
Качество: BDRemux 1080p
Видео: MPEG-4 AVC, 1920x1080, 27.5 Mbit/s, 24.000 fps
Звук:
Аудио #01: 48 kHz, AC3, 5.1, 384 Kbps | Дублированный | iTunes | RUS |
Аудио #02: 48 kHz, DTS-HD MA, 5.1, 3627 Kbps | Оригинал | ENG |
Субтитры: Английские

General
Unique ID : 272307839568877851753332443552556221048 (0xCCDC950D2327F80BF7849CC1C9FF8278)
Complete name : G:VideoSSDBorg.vs.McEnroe.2017.D.BDREMUX.1080p.ExKinoRay.mkv
Format : Matroska
Format version : Version 4 / Version 2
File size : 23.7 GiB
Duration : 1 h 47 min
Overall bit rate : 31.5 Mb/s
Movie name : Borg vs McEnroe 2017 from ExKinoRay
Encoded date : UTC 2018-01-19 15:12:33
Writing application : mkvmerge v20.0.0 ('I Am The Sun') 64-bit
Writing library : libebml v1.3.5 + libmatroska v1.4.8
Video
ID : 1
Format : AVC
Format/Info : Advanced Video Codec
Format profile : [email protected]
Format settings : CABAC / 4 Ref Frames
Format settings, CABAC : Yes
Format settings, ReFrames : 4 frames
Codec ID : V_MPEG4/ISO/AVC
Duration : 1 h 47 min
Bit rate mode : Constant
Bit rate : 27.5 Mb/s
Nominal bit rate : 30.0 Mb/s
Width : 1 920 pixels
Height : 1 080 pixels
Display aspect ratio : 16:9
Frame rate mode : Constant
Frame rate : 24.000 FPS
Standard : NTSC
Color space : YUV
Chroma subsampling : 4:2:0
Bit depth : 8 bits
Scan type : Progressive
Bits/(Pixel*Frame) : 0.553
Stream size : 20.7 GiB (87%)
Language : English
Default : Yes
Forced : No
Color range : Limited
Color primaries : BT.709
Transfer characteristics : BT.709
Matrix coefficients : BT.709
Audio #1
ID : 2
Format : AC-3
Format/Info : Audio Coding 3
Codec ID : A_AC3
Duration : 1 h 47 min
Bit rate mode : Constant
Bit rate : 384 kb/s
Channel(s) : 6 channels
Channel positions : Front: L C R, Side: L R, LFE
Sampling rate : 48.0 kHz
Frame rate : 31.250 FPS (1536 SPF)
Bit depth : 16 bits
Compression mode : Lossy
Stream size : 296 MiB (1%)
Title : iTunes
Language : Russian
Service kind : Complete Main
Default : Yes
Forced : No
Audio #2
ID : 3
Format : DTS
Format/Info : Digital Theater Systems
Format profile : MA / Core
Codec ID : A_DTS
Duration : 1 h 47 min
Bit rate mode : Variable / Constant
Bit rate : 3 627 kb/s / 1 509 kb/s
Channel(s) : 6 channels
Channel positions : Front: L C R, Side: L R, LFE
Sampling rate : 48.0 kHz
Frame rate : 93.750 FPS (512 SPF)
Bit depth : 24 bits
Compression mode : Lossless / Lossy
Stream size : 2.73 GiB (12%)
Title : Original
Language : English
Default : No
Forced : No
Text
ID : 4
Format : UTF-8
Codec ID : S_TEXT/UTF8
Codec ID/Info : UTF-8 Plain Text
Duration : 1 h 38 min
Bit rate : 47 b/s
Count of elements : 952
Stream size : 34.0 KiB (0%)
Language : English
Default : No
Forced : No
Menu
00:00:00.000 : en:Chapter 1
00:13:40.500 : en:Chapter 2
00:27:28.750 : en:Chapter 3
00:42:38.375 : en:Chapter 4
00:55:30.458 : en:Chapter 5
01:08:00.666 : en:Chapter 6
01:23:12.375 : en:Chapter 7
01:33:46.625 : en:Chapter 8

Релиз от: Автор релиза:
Подпишись на меня, кликни по картинке > :



   Похожие торренты   Торрент   Размер 
В этой теме нет новых непрочитанных сообщений. Борг/Макинрой / Borg McEnroe (2017) BDRip от ExKinoRay | iTunes

70 | 1

1.41 ГБ

В этой теме нет новых непрочитанных сообщений. Борг/Макинрой / Borg McEnroe (2017) BDRip-AVC от ExKinoRay | iTunes

18 | 2

742.18 МБ

В этой теме нет новых непрочитанных сообщений. Борг/Макинрой / Borg McEnroe (2017) BDRip 720p от ExKinoRay | iTunes

0 | 0

5.19 ГБ

В этой теме нет новых непрочитанных сообщений. Борг/Макинрой / Borg McEnroe (2017) WEB-DL 1080p от Scarabey | iTunes

232 | 9

3.72 ГБ

В этой теме нет новых непрочитанных сообщений. Борг/Макинрой / Borg McEnroe (2017) WEB-DL 720p | iTunes

115 | 8

3.34 ГБ

В этой теме нет новых непрочитанных сообщений. Борг/Макинрой / Borg McEnroe (2017) HDRip | iTunes

0 | 0

1.37 ГБ

В этой теме нет новых непрочитанных сообщений. Борг/Макинрой / Borg McEnroe (2017) WEB-DLRip-AVC от WSM | iTunes

37 | 1

1.79 ГБ




Вы не можете начинать темы
Вы не можете отвечать на сообщения
Вы не можете редактировать свои сообщения
Вы не можете удалять свои сообщения
Вы не можете добавлять вложения

Перейти:  
Для Мосгорсуда, Роскомнадзора и рекламодателей: mosgorsud-torrent[собачка]yandex.ru
 Вход
ppkBB3cker v.2 © 2008-2014 @ PPK
[ Time : 0.059s | 19 Queries | GZIP : Off ]

cron