img image001 image001 image001 image001 image001 image001 image001 image001 image001 image001 image001 image001 image001 image001 image001
Planets Sun Sun Sun
Статистика раздачи
Автор: Снежана | Размер: 2.19 ГБ | Добавлен: 23 июл 2013
Раздают: 4    Качают: 3
Скачать торрент
Скачать торрент
Описание торрента

СообщениеДобавлено: 23 июл 2013 

#77

Информация о фильме
Название: Отправь их в ад, Мэлоун!
Оригинальное название: Give 'em Hell, Malone
Год выпуска: 2009
Жанр: Боевик, триллер, криминал
Режиссер: Рассел Малкэй
В ролях: Томас Джейн, Винг Рэймс, Эльза Патаки, Френч Стюарт, Лиленд Орсер, Крис Йен, Уильям Абади, Грегори Харрисон, Даг Хатчисон, Айлин Райан, Дэвид Эндриол, Том Олсон, Марк Хосэк, Мелоди Деферэйдж, Барт Хеймбургер, Патрик Тредуэй, Арман Джалайери, Гари Пирс, Дэйн Фаруелл, Девон Грейвз, Брэндон О’Нилл



О фильме:
Главный герой - матерый частный детектив Мэлоун, которого нанимают доставить безжалостному гангстеру Уитмору нечто ценное и загадочное. По пути Мэлоуну придется противостоять разномастным головорезам, киллерам и прочим отморозкам и любой ценой доставить доверенный ему груз



Выпущено: США, Malone Productions, North by Northwest Entertainment, North by Northwest Productions
Продолжительность: 01:36:32
Перевод: Профессиональный многоголосый, авторский одноголосый(Пучков)
(Внимание!!! Ненормативная лексика!)





Файл
Качество: BDRip 720
Видео: AVC, 1280x544 (2.35:1), 23.976 fps, 2 351 Kbps
Звук:
Аудио #1: AC-3, 48.0 KHz, 6 ch, 448 Kbps
Аудио #2: AC-3, 48.0 KHz, 6 ch, 448 Kbps



Релиз от: &

Общее
Уникальный идентификатор : 191529419384370862666993604525771828513 (0x901739726EA19F758D7B2B81D0C1AD21)
Полное имя : F:для риповмэлоунGIVE_EM_HELL_MALONEBDMVSTREAMOtprav.ih.v.ad.Mjeloun.BDRip720.Torrent-Xzona.mkv
Формат : Matroska
Версия формата : Version 4 / Version 2
Размер файла : 2,19 Гбайт
Продолжительность : 1 ч. 36 м.
Общий поток : 3247 Кбит/сек
Дата кодирования : UTC 2013-03-04 15:28:50
Программа кодирования : mkvmerge v6.0.0 ('Coming Up For Air') built on Jan 20 2013 09:52:00
Библиотека кодирования : libebml v1.3.0 + libmatroska v1.4.0

Видео
Идентификатор : 1
Формат : AVC
Формат/Информация : Advanced Video Codec
Профиль формата : [email protected]
Параметр CABAC формата : Да
Параметр ReFrames формата : 5 кадров
Идентификатор кодека : V_MPEG4/ISO/AVC
Продолжительность : 1 ч. 36 м.
Битрейт : 2351 Кбит/сек
Ширина : 1280 пикселей
Высота : 544 пикселя
Соотношение сторон : 2,35:1
Режим частоты кадров : Постоянный
Частота кадров : 23,976 кадра/сек
Цветовое пространство : YUV
Субдискретизация насыщенности : 4:2:0
Битовая глубина : 8 бит
Тип развёртки : Прогрессивная
Бит/(Пиксели*Кадры) : 0.141
Размер потока : 1,54 Гбайт (70%)
Библиотека кодирования : x264 core 129 r2245 bc13772
Настройки программы : cabac=1 / ref=5 / deblock=1:-2:-2 / analyse=0x3:0x133 / me=umh / subme=10 / psy=1 / psy_rd=0.40:0.00 / mixed_ref=1 / me_range=24 / chroma_me=1 / trellis=2 / 8x8dct=1 / cqm=0 / deadzone=21,11 / fast_pskip=1 / chroma_qp_offset=-2 / threads=9 / lookahead_threads=1 / sliced_threads=0 / nr=0 / decimate=1 / interlaced=0 / bluray_compat=0 / constrained_intra=0 / bframes=5 / b_pyramid=2 / b_adapt=2 / b_bias=0 / direct=1 / weightb=1 / open_gop=0 / weightp=2 / keyint=240 / keyint_min=23 / scenecut=40 / intra_refresh=0 / rc_lookahead=40 / rc=2pass / mbtree=1 / bitrate=2351 / ratetol=1.0 / qcomp=0.60 / qpmin=0 / qpmax=69 / qpstep=4 / cplxblur=20.0 / qblur=0.5 / ip_ratio=1.40 / aq=1:0.60
Язык : English
Default : Да
Forced : Нет

Аудио #1
Идентификатор : 2
Формат : AC-3
Формат/Информация : Audio Coding 3
Расширение режима : CM (complete main)
Параметр Endianness формата : Big
Идентификатор кодека : A_AC3
Продолжительность : 1 ч. 36 м.
Вид битрейта : Постоянный
Битрейт : 448 Кбит/сек
Каналы : 6 каналов
Расположение каналов : Front: L C R, Side: L R, LFE
Частота : 48,0 КГц
Битовая глубина : 16 бит
Метод сжатия : С потерями
Размер потока : 309 Мбайт (14%)
Default : Да
Forced : Нет

Аудио #2
Идентификатор : 3
Формат : AC-3
Формат/Информация : Audio Coding 3
Расширение режима : CM (complete main)
Параметр Endianness формата : Big
Идентификатор кодека : A_AC3
Продолжительность : 1 ч. 36 м.
Вид битрейта : Постоянный
Битрейт : 448 Кбит/сек
Каналы : 6 каналов
Расположение каналов : Front: L C R, Side: L R, LFE
Частота : 48,0 КГц
Битовая глубина : 16 бит
Метод сжатия : С потерями
Размер потока : 309 Мбайт (14%)
Default : Нет
Forced : Нет







   Похожие торренты   Торрент   Размер 
В этой теме нет новых непрочитанных сообщений. Отправь их в ад, Мэлоун! / Give 'em Hell, Malone (2009) HDRip от Torrent-Xzona | КПК

0 | 2

470.22 МБ

В этой теме нет новых непрочитанных сообщений. Отправь их в ад, Мэлоун! / Отправь его в ад, Мэлоун / Give 'em Hell, Malone (2009) BDRip от HQCLUB | Лицензия

28 | 2

2.18 ГБ

В этой теме нет новых непрочитанных сообщений. Отправь их в ад, Мэлоун! / Give 'em Hell, Malone (2009) BDRip 720p

0 | 1

4.87 ГБ

В этой теме нет новых непрочитанных сообщений. Отправь его в ад, Мэлоун / Give 'em Hell, Malone (2009) BDRip

7 | 1

1.46 ГБ

В этой теме нет новых непрочитанных сообщений. Отправь их в ад, Мэлоун! / Give 'em Hell, Malone (2009) BDRip 1080p

3 | 53

4.36 ГБ

В этой теме нет новых непрочитанных сообщений. Отправь их в ад, Мэлоун! / Give 'em Hell, Malone (2009) BDRip от Rulya74

36 | 5

1.45 ГБ

В этой теме нет новых непрочитанных сообщений. Отправь их в ад, Мэлоун! / Give 'em Hell, Malone (2009) BDRip-AVC от ExKinoRay | P

326 | 82

746.25 МБ




Вы не можете начинать темы
Вы не можете отвечать на сообщения
Вы не можете редактировать свои сообщения
Вы не можете удалять свои сообщения
Вы не можете добавлять вложения

Перейти:  
Для Мосгорсуда, Роскомнадзора и рекламодателей: mosgorsud-torrent[собачка]yandex.ru
 Вход
ppkBB3cker v.2 © 2008-2014 @ PPK
[ Time : 0.056s | 18 Queries | GZIP : Off ]

cron