img image001 image001 image001 image001 image001 image001 image001 image001 image001 image001 image001 image001 image001 image001 image001
Planets Sun Sun Sun
Статистика раздачи
Автор: Nickolas3434 | Размер: 5.98 ГБ | Добавлен: 22 янв 2018
Раздают: 15    Качают: 1
Скачать торрент
Скачать торрент
Описание торрента

СообщениеДобавлено: 22 янв 2018 

Информация о фильме
Название: Небеса обетованные
Год выхода: 1991
Жанр: Комедия, драма
Режиссер: Эльдар Рязанов
В ролях: Лия Ахеджакова, Ольга Волкова, Валентин Гафт, Леонид Броневой, Олег Басилашвили, Светлана Немоляева, Наталья Гундарева, Михаил Филиппов, Сергей Арцибашев, Вячеслав Невинный, Александр Пашутин, Наталья Щукина, Нина Русланова, Джон Кохан, Александр Панкратов-Чёрный, Александр Белявский, Сергей Данилевич, Мария Виноградова, Татьяна Гаврилова, Валерий Носик, Станислав Садальский, Фёдор Дунаевский, Игорь Ветров, Людмила Иванова, Татьяна Кравченко, Зинаида Кулакова, Юрий Митрофанов, Роман Карцев
О фильме:
Трагикомическая история о бездомных людях, живущих на городской свалке, об их судьбах, радостях и горестях. Они борются за место под солнцем с городскими властями, отстаивая свое право жить на земле не страшась даже танков, посланных чиновниками...
Релиз от:

Страна: СССР, Мосфильм
Продолжительность: 01:57:34
Перевод: не требуется
Навигация по главам: есть
Файл
Кодек: x264
Качество: WEB-DLRip 720p
Видео: MPEG-4 AVC, 960x718, 25 fps, 6435 Кбит/с
Звук: AC3, 6 ch, 448 Кбит/с, AC3, 2 ch, 256 Кбит/с

x264 [info]: frame I:934 Avg QP:17.92 size:137120
x264 [info]: frame P:42726 Avg QP:19.50 size: 72030
x264 [info]: frame B:132714 Avg QP:21.96 size: 19555
------------------------------------------------------------
Общее
Уникальный идентификатор : 188847695472939731065591277004675948966 (0x8E12BE3FFEB5EB0987D343A0D1D521A6)
Полное имя : D:Небеса обетованныеWEB-DLRip 720p_KORSAR.mkv
Формат : Matroska
Версия формата : Version 2
Размер файла : 5,98 Гбайт
Продолжительность : 1 ч. 57 м.
Общий поток : 7284 Кбит/сек
Дата кодирования : UTC 2018-01-16 06:41:07
Программа кодирования : mkvmerge v5.8.0 ('No Sleep / Pillow') built on Sep 2 2012 15:37:04
Библиотека кодирования : libebml v1.2.3 + libmatroska v1.3.0
Видео
Идентификатор : 1
Формат : AVC
Формат/Информация : Advanced Video Codec
Профиль формата : [email protected]
Параметр CABAC формата : Да
Параметр RefFrames формата : 12 кадров
Идентификатор кодека : V_MPEG4/ISO/AVC
Продолжительность : 1 ч. 57 м.
Битрейт : 6435 Кбит/сек
Ширина : 960 пикселей
Высота : 718 пикселей
Соотношение сторон : 4:3
Режим частоты кадров : Постоянный
Частота кадров : 25,000 кадров/сек
Цветовое пространство : YUV
Субдискретизация насыщенности : 4:2:0
Битовая глубина : 8 бит
Тип развёртки : Прогрессивная
Бит/(Пиксели*Кадры) : 0.373
Размер потока : 5,29 Гбайт (88%)
Библиотека кодирования : x264 core 148 r2744kMod b97ae06
Настройки программы : cabac=1 / ref=12 / deblock=1:-2:-1 / analyse=0x3:0x113 / me=umh / subme=10 / psy=1 / fade_compensate=0.00 / psy_rd=1.05:0.05 / mixed_ref=1 / me_range=36 / chroma_me=1 / trellis=2 / 8x8dct=1 / cqm=0 / deadzone=21,11 / fast_pskip=1 / chroma_qp_offset=-3 / threads=12 / lookahead_threads=2 / sliced_threads=0 / nr=0 / decimate=1 / interlaced=0 / bluray_compat=0 / constrained_intra=0 / bframes=9 / b_pyramid=2 / b_adapt=2 / b_bias=0 / direct=1 / weightb=1 / open_gop=0 / weightp=2 / keyint=250 / keyint_min=25 / scenecut=40 / intra_refresh=0 / rc_lookahead=40 / rc=crf / mbtree=0 / crf=17.0000 / qcomp=0.63 / qpmin=0 / qpmax=39 / qpstep=4 / vbv_maxrate=50000 / vbv_bufsize=62500 / crf_max=0.0 / nal_hrd=none / filler=0 / ip_ratio=1.40 / pb_ratio=1.30 / aq=2:0.80
Язык : English
Default : Да
Forced : Нет
Цветовой диапазон : Limited
Основные цвета : BT.709
Характеристики трансфера : BT.709
Коэффициенты матрицы : BT.709
Аудио #1
Идентификатор : 2
Формат : AC-3
Формат/Информация : Audio Coding 3
Параметр Endianness формата : Big
Идентификатор кодека : A_AC3
Продолжительность : 1 ч. 57 м.
Вид битрейта : Постоянный
Битрейт : 448 Кбит/сек
Каналы : 6 каналов
Расположение каналов : Front: L C R, Side: L R, LFE
Частота : 48,0 КГц
Частота кадров : 31,250 кадров/сек (1536 SPF)
Битовая глубина : 16 бит
Метод сжатия : С потерями
Размер потока : 377 Мбайт (6%)
Язык : Russian
ServiceKind : Complete Main
Default : Да
Forced : Нет
Аудио #2
Идентификатор : 3
Формат : AC-3
Формат/Информация : Audio Coding 3
Параметр Endianness формата : Big
Идентификатор кодека : A_AC3
Продолжительность : 1 ч. 57 м.
Вид битрейта : Постоянный
Битрейт : 256 Кбит/сек
Каналы : 2 канала
Расположение каналов : Front: L R
Частота : 48,0 КГц
Частота кадров : 31,250 кадров/сек (1536 SPF)
Битовая глубина : 16 бит
Метод сжатия : С потерями
Размер потока : 215 Мбайт (4%)
Язык : Russian
ServiceKind : Complete Main
Default : Нет
Forced : Нет
Меню
00:00:00.000 : en:Chapter 1
00:08:53.680 : en:Chapter 2
00:19:00.400 : en:Chapter 3
00:29:04.680 : en:Chapter 4
00:38:24.000 : en:Chapter 5
00:48:54.000 : en:Chapter 6
01:06:39.160 : en:Chapter 7
01:09:50.720 : en:Chapter 8
01:19:58.800 : en:Chapter 9
01:28:08.360 : en:Chapter 10
01:39:46.400 : en:Chapter 11
01:56:00.000 : en:Chapter 12



   Похожие торренты   Торрент   Размер 
В этой теме нет новых непрочитанных сообщений. Небеса обетованные (1991) DVDRip

9 | 4

1.37 ГБ

В этой теме нет новых непрочитанных сообщений. Небеса обетованные (1991) DVDRip-AVC

86 | 12

2.26 ГБ

В этой теме нет новых непрочитанных сообщений. Небеса обетованные (1991) DVDRip от New-Team

100 | 12

1.46 ГБ

В этой теме нет новых непрочитанных сообщений. Небеса обетованные (1991) DVDRip от New-Team

19 | 2

2.19 ГБ

В этой теме нет новых непрочитанных сообщений. Небеса обетованные (1991) DVDRip-AVC от New-Team

83 | 15

2.19 ГБ

В этой теме нет новых непрочитанных сообщений. Небеса обетованные (1991) DVDRip от ExKinoRay

66 | 10

1.36 ГБ

В этой теме нет новых непрочитанных сообщений. Небеса обетованные (1991) DVDRip-AVC от ExKinoRay

173 | 24

2.63 ГБ




Вы не можете начинать темы
Вы не можете отвечать на сообщения
Вы не можете редактировать свои сообщения
Вы не можете удалять свои сообщения
Вы не можете добавлять вложения

Перейти:  
Для Мосгорсуда, Роскомнадзора и рекламодателей: mosgorsud-torrent[собачка]yandex.ru
 Вход
ppkBB3cker v.2 © 2008-2014 @ PPK
[ Time : 0.046s | 19 Queries | GZIP : Off ]

cron