img image001 image001 image001 image001 image001 image001 image001 image001 image001 image001 image001 image001 image001 image001 image001
Planets Sun Sun Sun
Статистика раздачи
Автор: Nickolas3434 | Размер: 1.09 ГБ | Добавлен: 22 янв 2018
Раздают: 5    Качают: 0
Скачать торрент
Скачать торрент
Описание торрента

СообщениеДобавлено: 22 янв 2018 


Мы "В КОНТАКТЕ"


Страна: СССР
Производство: Мосфильм
Жанр: военный
Год выпуска: 1959
Продолжительность: 01:21:58
Перевод: Не требуется
Cубтитры: нет
Оригинальная аудиодорожка: русский
Режиссер: Леон Сааков
В ролях:
Всеволод Санаев, Анатолий Кузнецов, Юрий Соловьёв, Евгений Шутов, Ия Арепина, Харальд Страхов, Борис Муравьев, Юлия Цоглин, Олег Мокшанцев, Юрий Киреев, Михаил Бочаров...
Об актёрах подробней
Описание:
Прообразом героя картины стал военный кинооператор Владимир Сущинский, погибший под Бреслау в феврале 1945 года с кинокамерой в руках. Великая Отечественная война. От Москвы до Севастополя и от Мурманска до Москвы - везде смерть, беды, потери. Кинооператор Владимир Сушков (Анатолий Кузнецов). Про него можно сказать словами из звучащей в фильме "Песни о Севастополе": "Я по стольким дорогам протопал". Он снимает суровую повесть о неизвестных героях и каждовневном подвиге всех тех, кто был на войне.





Исходник: DVB
Качество видео: SATRip
Формат видео: AVI
Видео: 688х512 (4:3), 25 fps, XviD ~ 1702 kbps avg, 0.193 bit/pixel
Аудио: 48 kHz, Dolby Digital AC3 2.0, 192 kbps
Раздача от:
Общее
Полное имя : Na.dorogah.voyny.1959.SATRip_[New-team]_by_AVP_Studio.avi
Формат : AVI
Формат/Информация : Audio Video Interleave
Размер файла : 1,09 Гбайт
Продолжительность : 1 ч. 21 м.
Общий поток : 1904 Кбит/сек
Программа кодирования : VirtualDubMod 1.5.10.3 | www.virtualdub-fr.org || (build 2550/release)
Библиотека кодирования : VirtualDubMod build 2550/release
Видео
Идентификатор : 0
Формат : MPEG-4 Visual
Профиль формата : Advanced [email protected]
Настройки формата : BVOP1 / Custom Matrix
Параметр BVOP формата : 1
Параметр QPel формата : Нет
Параметр GMC формата : Без точки перехода
Параметр матрицы формата : Выборочная
Идентификатор кодека : XVID
Идентификатор кодека/Подсказка : XviD
Продолжительность : 1 ч. 21 м.
Битрейт : 1702 Кбит/сек
Ширина : 688 пикселей
Высота : 512 пикселей
Соотношение сторон : 4:3
Частота кадров : 25,000 кадров/сек
Цветовое пространство : YUV
Субдискретизация насыщенности : 4:2:0
Битовая глубина : 8 бит
Тип развёртки : Прогрессивная
Метод сжатия : С потерями
Бит/(Пиксели*Кадры) : 0.193
Размер потока : 998 Мбайт (89%)
Библиотека кодирования : XviD 73
Аудио
Идентификатор : 1
Формат : AC-3
Формат/Информация : Audio Coding 3
Идентификатор кодека : 2000
Продолжительность : 1 ч. 21 м.
Вид битрейта : Постоянный
Битрейт : 192 Кбит/сек
Каналы : 2 канала
Расположение каналов : Front: L R
Частота : 48,0 КГц
Частота кадров : 31,250 кадров/сек (1536 SPF)
Битовая глубина : 16 бит
Метод сжатия : С потерями
Размер потока : 113 Мбайт (10%)
Выравнивание : Разделение по промежуткам
Продолжительность промежутка : 40 мс. (1,00 видеокадр)
Время предзагрузки промежутка : 500 мс





   Похожие торренты   Торрент   Размер 
В этой теме нет новых непрочитанных сообщений. На дорогах войны (1959) SATRip-AVC от New-Team

7 | 1

1.09 ГБ

В этой теме нет новых непрочитанных сообщений. На дорогах войны (1958) TVRip

111 | 5

744.83 МБ

В этой теме нет новых непрочитанных сообщений. Сверстницы (1959) SATRip-AVC от New-Team

13 | 1

1.09 ГБ

В этой теме нет новых непрочитанных сообщений. Сверстницы (1959) SATRip от New-Team

0 | 0

745.39 МБ

В этой теме нет новых непрочитанных сообщений. Аннушка (1959) SATRip от New-Team

4 | 1

745.25 МБ

В этой теме нет новых непрочитанных сообщений. Муму (1959) SATRip от New-Team

9 | 0

744.81 МБ

В этой теме нет новых непрочитанных сообщений. Аннушка (1959) SATRip от New-Team

9 | 0

1.09 ГБ




Вы не можете начинать темы
Вы не можете отвечать на сообщения
Вы не можете редактировать свои сообщения
Вы не можете удалять свои сообщения
Вы не можете добавлять вложения

Перейти:  
Для Мосгорсуда, Роскомнадзора и рекламодателей: mosgorsud-torrent[собачка]yandex.ru
 Вход
ppkBB3cker v.2 © 2008-2014 @ PPK
[ Time : 0.045s | 20 Queries | GZIP : Off ]

cron