img image001 image001 image001 image001 image001 image001 image001 image001 image001 image001 image001 image001 image001 image001 image001
Planets Sun Sun Sun
Статистика раздачи
Автор: Nickolas3434 | Размер: 2.75 ГБ | Добавлен: 22 янв 2018
Раздают: 0    Качают: 0
Скачать торрент
Скачать торрент
Описание торрента

СообщениеДобавлено: 22 янв 2018 

Любить по-русски 3

Жанр: остросюжетная мелодрама
Год выпуска: 1999
Режиссер: Евгений Матвеев
В ролях: Евгений Матвеев, Галина Польских, Георгий Мартиросян, Лариса Удовиченко, Ольга Егорова, Никита Джигурда
О фильме: Бывший фермер Мухин становится губернатором и получает предупреждение: если в течение семи дней он не изменит своего решения о строительстве моста, стратегически важного для области, но затрагивающего интересы теневой экономики, последствия будут самыми серьезными…
Выпущено: Россия
Продолжительность: 01:31:42
Перевод: не требуется

Релиз от:
Кодек: х264
Качество: DVDRip-AVC
Видео: MPEG-4 AVC, [email protected], 25 fps, 4100 Кбит/с
Звук: AC3, 2 ch, 192 Кбит/с

Общее
Уникальный идентификатор : 207879680409294281926970359932593362967 (0x9C642B8DD5EFABC18EED6AF615D7D817)
Полное имя : E:Мои рипыЛюбить по русски 3 SATRip-AVC - KORSAR.mkv
Формат : Matroska
Версия формата : Version 2
Размер файла : 2,75 Гбайт
Продолжительность : 1 ч. 31 м.
Общий поток : 4293 Кбит/сек
Дата кодирования : UTC 2017-10-22 02:22:30
Программа кодирования : mkvmerge v5.8.0 ('No Sleep / Pillow') built on Sep 2 2012 15:37:04
Библиотека кодирования : libebml v1.2.3 + libmatroska v1.3.0
Видео
Идентификатор : 1
Формат : AVC
Формат/Информация : Advanced Video Codec
Профиль формата : [email protected]
Настройки формата : CABAC / 12 Ref Frames
Параметр CABAC формата : Да
Параметр RefFrames формата : 12 кадров
Идентификатор кодека : V_MPEG4/ISO/AVC
Продолжительность : 1 ч. 31 м.
Битрейт : 4100 Кбит/сек
Ширина : 704 пикселя
Высота : 566 пикселей
Соотношение сторон : 4:3
Соотношение сторон в оригинале : 4:3
Режим частоты кадров : Постоянный
Частота кадров : 25,000 кадров/сек
Цветовое пространство : YUV
Субдискретизация насыщенности : 4:2:0
Битовая глубина : 8 бит
Тип развёртки : Прогрессивная
Бит/(Пиксели*Кадры) : 0.412
Размер потока : 2,57 Гбайт (94%)
Библиотека кодирования : x264 core 152 r2851kMod ba24899
Настройки программы : cabac=1 / ref=12 / deblock=1:-2:-1 / analyse=0x3:0x133 / me=umh / subme=10 / psy=1 / fade_compensate=0.00 / psy_rd=0.90:0.10 / mixed_ref=1 / me_range=48 / chroma_me=1 / trellis=2 / 8x8dct=1 / cqm=0 / deadzone=21,11 / fast_pskip=0 / chroma_qp_offset=-3 / threads=12 / lookahead_threads=2 / sliced_threads=0 / nr=0 / decimate=0 / interlaced=0 / bluray_compat=0 / constrained_intra=0 / bframes=8 / b_pyramid=2 / b_adapt=2 / b_bias=0 / direct=3 / weightb=1 / open_gop=0 / weightp=2 / keyint=250 / keyint_min=25 / scenecut=40 / intra_refresh=0 / rc_lookahead=40 / rc=2pass / mbtree=0 / bitrate=4100 / ratetol=1.0 / qcomp=0.60 / qpmin=0 / qpmax=39 / qpstep=4 / cplxblur=20.0 / qblur=0.5 / vbv_maxrate=50000 / vbv_bufsize=62500 / nal_hrd=none / filler=0 / ip_ratio=1.40 / pb_ratio=1.30 / aq=1:1.00
Язык : English
Default : Да
Forced : Нет
Цветовой диапазон : Limited
Основные цвета : BT.601 PAL
Характеристики трансфера : BT.470 System B, BT.470 System G
Коэффициенты матрицы : BT.470 System B, BT.470 System G
Аудио
Идентификатор : 2
Формат : AC-3
Формат/Информация : Audio Coding 3
Параметр Endianness формата : Big
Идентификатор кодека : A_AC3
Продолжительность : 1 ч. 31 м.
Вид битрейта : Постоянный
Битрейт : 192 Кбит/сек
Каналы : 2 канала
Расположение каналов : Front: L R
Частота : 48,0 КГц
Частота кадров : 31,250 кадров/сек (1536 SPF)
Битовая глубина : 16 бит
Метод сжатия : С потерями
Размер потока : 126 Мбайт (4%)
g : Complete Main
Default : Да
Forced : Нет



   Похожие торренты   Торрент   Размер 
В этой теме нет новых непрочитанных сообщений. Любить по-русски 2 (1996) SATRip-AVC от KORSAR

8 | 0

2.55 ГБ

В этой теме нет новых непрочитанных сообщений. Любить по-русски (1995) DVDRip-AVC от KORSAR

12 | 0

1.49 ГБ

В этой теме нет новых непрочитанных сообщений. Любить по-русски 1,2,3 (1995-1999) DVDRip

132 | 11

2.24 ГБ

В этой теме нет новых непрочитанных сообщений. Любить по-русски. Трилогия (1995-1999) 3хDVD5

1 | 7

12.04 ГБ

В этой теме нет новых непрочитанных сообщений. Любить по русски. Трилогия (1995-1999) DVDRip от КинозалSat

65 | 20

4.1 ГБ

В этой теме нет новых непрочитанных сообщений. Место встречи. Любить по русски?! (Эфир от 29.06.2017) [2017, общественно-политическое ток-шоу, SATRip]

2 | 0

1.3 ГБ

В этой теме нет новых непрочитанных сообщений. DJ D.V.A. - Любить По-Русски!!! (2014) MP3

105 | 11

178.78 МБ




Вы не можете начинать темы
Вы не можете отвечать на сообщения
Вы не можете редактировать свои сообщения
Вы не можете удалять свои сообщения
Вы не можете добавлять вложения

Перейти:  
Для Мосгорсуда, Роскомнадзора и рекламодателей: mosgorsud-torrent[собачка]yandex.ru
 Вход
ppkBB3cker v.2 © 2008-2014 @ PPK
[ Time : 0.046s | 17 Queries | GZIP : Off ]

cron