img image001 image001 image001 image001 image001 image001 image001 image001 image001 image001 image001 image001 image001 image001 image001
Planets Sun Sun Sun
Статистика раздачи
Автор: Nickolas3434 | Размер: 5.13 ГБ | Добавлен: 28 янв 2018
Раздают: 26    Качают: 5
Скачать торрент
Скачать торрент
Описание торрента

СообщениеДобавлено: 28 янв 2018 

Морозко

Страна: СССР
Жанр: Сказка
Год выпуска: 1964
Продолжительность: 01:19:59
Перевод: Не требуется
Режиссер: Александр Роу
В ролях: Александр Хвыля, Наталья Седых, Эдуард Изотов, Инна Чурикова, Павел Павленко, Вера Алтайская,
Георгий Милляр, Галина Борисова, Анатолий Кубацкий, Валентин Брылеев
Описание: Жила-была хорошая добрая девушка Настенька. Злая мачеха заставляла ее работать, не давая продыху. Однажды она решила избавиться от падчерицы и отправила ту замерзать в зимний лес. В этих же краях жил паренек Иван.
Он полюбил Настеньку, да вот только был он большим хвастуном, потому лесной колдун и превратил его в медведя.
И Настеньке, и Ивану пришлось пройти через много испытаний, прежде чем соединить свои судьбы. И помог им в этом добрый волшебник — дедушка Морозко…

Кодек: х264
Качество: BDRip 720p
Видео: MPEG-4 AVC, 984х720, 24 fps, 9000 Кбит/с
Аудио: АС3, 2h, 192 Кбит/с
Субтитры: Нет
Главы: Есть
x264 [info]: frame I:747 Avg QP:18.77 size:169709
x264 [info]: frame P:24263 Avg QP:21.15 size: 88384
x264 [info]: frame B:90168 Avg QP:22.85 size: 34668
Общее
Уникальный идентификатор : 193853405103851850711744617234194826498 (0x91D6CECA161E6533A9AE4AC9CACD0502)
Полное имя : E:Мои рипыМорозко 1964_BDRip 720p_KORSAR.mkv
Формат : Matroska
Версия формата : Version 2
Размер файла : 5,13 Гбайт
Продолжительность : 1 ч. 19 м.
Общий поток : 9191 Кбит/сек
Дата кодирования : UTC 2018-01-24 10:47:07
Программа кодирования : mkvmerge v5.8.0 ('No Sleep / Pillow') built on Sep 2 2012 15:37:04
Библиотека кодирования : libebml v1.2.3 + libmatroska v1.3.0
Видео
Идентификатор : 1
Формат : AVC
Формат/Информация : Advanced Video Codec
Профиль формата : [email protected]
Настройки формата : CABAC / 11 Ref Frames
Параметр CABAC формата : Да
Параметр RefFrames формата : 11 кадров
Идентификатор кодека : V_MPEG4/ISO/AVC
Продолжительность : 1 ч. 19 м.
Битрейт : 9000 Кбит/сек
Ширина : 984 пикселя
Высота : 720 пикселей
Соотношение сторон : 4:3
Режим частоты кадров : Постоянный
Частота кадров : 24,000 кадра/сек
Цветовое пространство : YUV
Субдискретизация насыщенности : 4:2:0
Битовая глубина : 8 бит
Тип развёртки : Прогрессивная
Бит/(Пиксели*Кадры) : 0.529
Размер потока : 4,93 Гбайт (96%)
Библиотека кодирования : x264 core 152 r2851kMod ba24899
Настройки программы : cabac=1 / ref=11 / deblock=1:-2:-1 / analyse=0x3:0x113 / me=umh / subme=11 / psy=1 / fade_compensate=0.00 / psy_rd=1.05:0.10 / mixed_ref=1 / me_range=48 / chroma_me=1 / trellis=2 / 8x8dct=1 / cqm=0 / deadzone=21,11 / fast_pskip=0 / chroma_qp_offset=-3 / threads=12 / lookahead_threads=3 / sliced_threads=0 / nr=0 / decimate=0 / interlaced=0 / bluray_compat=0 / constrained_intra=0 / bframes=12 / b_pyramid=2 / b_adapt=2 / b_bias=0 / direct=3 / weightb=1 / open_gop=0 / weightp=2 / keyint=240 / keyint_min=24 / scenecut=40 / intra_refresh=0 / rc_lookahead=40 / rc=2pass / mbtree=0 / bitrate=9000 / ratetol=1.0 / qcomp=0.60 / qpmin=0 / qpmax=39 / qpstep=4 / cplxblur=20.0 / qblur=0.5 / vbv_maxrate=50000 / vbv_bufsize=62500 / nal_hrd=none / filler=0 / ip_ratio=1.25 / pb_ratio=1.30 / aq=1:0.90
Язык : English
Default : Да
Forced : Нет
Цветовой диапазон : Limited
Основные цвета : BT.709
Характеристики трансфера : BT.709
Коэффициенты матрицы : BT.709
Аудио
Идентификатор : 2
Формат : AC-3
Формат/Информация : Audio Coding 3
Режим : Dolby Digital
Параметр Endianness формата : Big
Идентификатор кодека : A_AC3
Продолжительность : 1 ч. 19 м.
Вид битрейта : Постоянный
Битрейт : 192 Кбит/сек
Каналы : 2 канала
Расположение каналов : Front: L R
Частота : 48,0 КГц
Частота кадров : 31,250 кадров/сек (1536 SPF)
Битовая глубина : 16 бит
Метод сжатия : С потерями
Размер потока : 110 Мбайт (2%)
Default : Да
Forced : Нет
Меню
00:00:00.000 : en:Chapter 1
00:02:17.000 : en:Chapter 2
00:08:27.125 : en:Chapter 3
00:17:19.916 : en:Chapter 4
00:25:52.958 : en:Chapter 5
00:31:14.666 : en:Chapter 6
00:40:37.000 : en:Chapter 7
00:48:13.708 : en:Chapter 8
00:57:16.291 : en:Chapter 9
01:06:04.625 : en:Chapter 10
01:19:52.000 : en:Chapter 11





   Похожие торренты   Торрент   Размер 
В этой теме нет новых непрочитанных сообщений. Морозко (1964) BDRip от HQCLUB

448 | 3

1.08 ГБ

В этой теме нет новых непрочитанных сообщений. Морозко (1964) DVDRip

1126 | 51

1.36 ГБ

В этой теме нет новых непрочитанных сообщений. Морозко (1964) DVDRip-AVC

306 | 11

1.46 ГБ

В этой теме нет новых непрочитанных сообщений. Морозко (1964) HDTVRip | КПК от ImperiaFilm

22 | 2

269.57 МБ

В этой теме нет новых непрочитанных сообщений. Морозко (1964) HDTVRip от New Team

340 | 35

743.23 МБ

В этой теме нет новых непрочитанных сообщений. Морозко (1964) DVDRip-AVC от New-Team

304 | 20

1.95 ГБ

В этой теме нет новых непрочитанных сообщений. Морозко (1964) HDTVRip от New Team

191 | 85

1.45 ГБ




Вы не можете начинать темы
Вы не можете отвечать на сообщения
Вы не можете редактировать свои сообщения
Вы не можете удалять свои сообщения
Вы не можете добавлять вложения

Перейти:  
Для Мосгорсуда, Роскомнадзора и рекламодателей: mosgorsud-torrent[собачка]yandex.ru
 Вход
ppkBB3cker v.2 © 2008-2014 @ PPK
[ Time : 0.029s | 17 Queries | GZIP : Off ]

cron