img image001 image001 image001 image001 image001 image001 image001 image001 image001 image001 image001 image001 image001 image001 image001 image001
Planets Sun Sun Sun
Статистика раздачи
Автор: Nickolas3434 | Размер: 1.09 ГБ | Добавлен: 01 фев 2018
Раздают: 2    Качают: 5
Скачать торрент
Скачать торрент
Описание торрента

СообщениеДобавлено: 01 фев 2018 


Мы "В КОНТАКТЕ"


Страна: СССР
Производство: Таллинфильм
Жанр: драма, криминал, шпионский фильм
Год выпуска: 1959
Продолжительность: 01:32:52
Перевод: Не требуется
Cубтитры: нет
Оригинальная аудиодорожка: русский
Режиссер: Игорь Ельцов
В ролях:
Рейн Арен, Хиля Варем-Вээ, Хейно Мандри, Вальдо Труве, Юри Ярвет, Антс Лаутер, Антс Эскола, Каарел Карм, Хуго Лаур, Вольдемар Пансо, Айно Тальви, Олев Эскола, Улев Аалое, Энн Адуссон, Рудольф Нууде...
Об актёрах подробней
Описание:
Из Швеции в советскую Эстонию забрасывается группа шпионов-диверсантов из эмигрантов-эстонцев. Им удается разойтись по своим явкам. Руководителю группы, Вари (Хейно Мандри), удаётся обосноваться у знакомой девушки Хильды, где он выдаёт себя за крупного инженера, прибывшего с Урала. Вари знакомится с Эрнстом (Рейн Арен), женихом Хильды. Шпион завербовывает Эрнста на диверсионную работу. Вальтер (Юри Ярвет) приходит на хутор к брату Андресу. Шпион Фреди обосновывается у лесника Репса (Хуго Лаур). Но необходимой поддержки у населения диверсанты не находят...





Источник: VHS
Качество видео: VHSRip
Формат видео: AVI
Видео: 688x512 (4:3), 25 fps, XviD ~ 1485 kbps avg, 0.169 bit/pixel
Аудио: 48 kHz, Dolby Digital AC3 2.0, 192 kbps
Раздача от:
Общее
Полное имя : Nezvanye.gosti.1959.VHSRip_[New-team]_by_AVP_Studio.avi
Формат : AVI
Формат/Информация : Audio Video Interleave
Размер файла : 1,09 Гбайт
Продолжительность : 1 ч. 32 м.
Общий поток : 1687 Кбит/сек
Программа кодирования : VirtualDubMod 1.5.10.3 | www.virtualdub-fr.org || (build 2550/release)
Библиотека кодирования : VirtualDubMod build 2550/release
Видео
Идентификатор : 0
Формат : MPEG-4 Visual
Профиль формата : Advanced [email protected]
Настройки формата : BVOP1 / Custom Matrix
Параметр BVOP формата : 1
Параметр QPel формата : Нет
Параметр GMC формата : Без точки перехода
Параметр матрицы формата : Выборочная
Идентификатор кодека : XVID
Идентификатор кодека/Подсказка : XviD
Продолжительность : 1 ч. 32 м.
Битрейт : 1485 Кбит/сек
Ширина : 688 пикселей
Высота : 512 пикселей
Соотношение сторон : 4:3
Частота кадров : 25,000 кадров/сек
Цветовое пространство : YUV
Субдискретизация насыщенности : 4:2:0
Битовая глубина : 8 бит
Тип развёртки : Прогрессивная
Метод сжатия : С потерями
Бит/(Пиксели*Кадры) : 0.169
Размер потока : 987 Мбайт (88%)
Библиотека кодирования : XviD 73
Аудио
Идентификатор : 1
Формат : AC-3
Формат/Информация : Audio Coding 3
Идентификатор кодека : 2000
Продолжительность : 1 ч. 32 м.
Вид битрейта : Постоянный
Битрейт : 192 Кбит/сек
Каналы : 2 канала
Расположение каналов : Front: L R
Частота : 48,0 КГц
Частота кадров : 31,250 кадров/сек (1536 SPF)
Битовая глубина : 16 бит
Метод сжатия : С потерями
Размер потока : 128 Мбайт (11%)
Выравнивание : Разделение по промежуткам
Продолжительность промежутка : 40 мс. (1,00 видеокадр)
Время предзагрузки промежутка : 500 мс





   Похожие торренты   Торрент   Размер 
В этой теме нет новых непрочитанных сообщений. Незваные гости (1959) VHSRip-AVC от New-Team

18 | 0

1.09 ГБ

В этой теме нет новых непрочитанных сообщений. Незваные гости (1959) VHSRip

35 | 5

1.37 ГБ

В этой теме нет новых непрочитанных сообщений. Незваные гости (2016) PDTVRip-AVC от SDARMY

121 | 12

879.37 МБ

В этой теме нет новых непрочитанных сообщений. Незваные гости / Shut In (2015) WEB-DL 720p | L2

1038 | 49

2.83 ГБ

В этой теме нет новых непрочитанных сообщений. Незваные гости / Shut In (2015) WEB-DLRip-AVC | L2

825 | 41

1.81 ГБ

В этой теме нет новых непрочитанных сообщений. Незваные гости / Shut In (2015) WEB-DLRip | L2

2148 | 61

1.4 ГБ

В этой теме нет новых непрочитанных сообщений. Незваные гости / Shut In (2015) BDRip-AVC | D, L2

12 | 37

2.03 ГБ




Вы не можете начинать темы
Вы не можете отвечать на сообщения
Вы не можете редактировать свои сообщения
Вы не можете удалять свои сообщения
Вы не можете добавлять вложения

Перейти:  
Для Мосгорсуда, Роскомнадзора и рекламодателей: mosgorsud-torrent[собачка]yandex.ru
 Вход
ppkBB3cker v.2 © 2008-2014 @ PPK
[ Time : 0.025s | 18 Queries | GZIP : Off ]

cron