img image001 image001 image001 image001 image001 image001 image001 image001 image001 image001 image001 image001 image001 image001 image001
Planets Sun Sun Sun
Статистика раздачи
Автор: Nickolas3434 | Размер: 10.26 ГБ | Добавлен: 01 фев 2018
Раздают: 7    Качают: 2
Скачать торрент
Скачать торрент
Описание торрента

СообщениеДобавлено: 01 фев 2018 

Сны о России / The Dream of Russia / O-Roshiya-koku suimu-tan
Страна: Россия Япония
Производство: Daiei Studios, Toho Company
Год выпуска: 1992
Жанр: драма, исторический
Продолжительность: 02:02:25
Режиссер: Дзюнъя Сато
Авторы сценария: Фумио Конами, Тацуо Ногами, Дзюнъя Сато
В ролях: Кэн Огата, Олег Янковский, Такудзо Каватани, Нобору Митани, Тосиюки Нисида, Юрий Соломин, Тору Эмори, Марина Влади, Хироюки Окита
Описание: Исторический фильм по роману Ясуси Иноуэ. Потерпев кораблекрушение у берегов Сибири, японский капитан с шестнадцатью матросами пускаются в удивительные приключения, полные переживаний, любви, отчаянья и чудес длиною в девять лет...

Перевод: Профессиональный (одноголосый, закадровый) | студийный Cinema Prestige (на японскую речь)
Субтитры: английские, японские (вшитые на русскую речь)

Качество: WEB-DL 1080p
Формат: МКV
Видео кодек: AVC
Аудио кодек: АС3 | Е-АС3
Видео: 1920x1040 (1.85:1), 23.976 fps, MPEG-4 AVC ~11.6 Mbps avg
Аудио №1: 48.0 kHz, AC3 Dolby Digital, 2/0 (L,R) ch, ~192 kbps | RUS / Cinema Prestige
Аудио №2: 48.0 kHz, Enhanced AC3 Dolby Digital, 2/0 (L,R) ch, ~224 kbps | RUS + JAP
Формат субтитров: UTF-8 Plain Text
Дата премьеры (мир): 25 июня 1992
релиз на DVD: 16 сентября 2010, «Cinema Prestige»

General
Unique ID : 237628837819243125886014398159194686620 (0xB2C5A641BD4199108C5F9014FF70049C)
Complete name : O-Roshiya-koku.suimu-tan.1992.1080p.WEB-DL.DD2.0.H.264-SbR.mkv
Format : Matroska
Format version : Version 2
File size : 10.3 GiB
Duration : 2 h 2 min
Overall bit rate mode : Variable
Overall bit rate : 12.0 Mb/s
Movie name : O-Roshiya-koku suimu-tan / The Dream of Russia / Сны о России (1992)
Encoded date : UTC 2017-12-14 16:16:42
Writing application : mkvmerge v18.0.0 ('Apricity') 64-bit
Writing library : libebml v1.3.5 + libmatroska v1.4.8
Cover : Yes
Video
ID : 1
Format : AVC
Format/Info : Advanced Video Codec
Format profile : [email protected]
Format settings : CABAC / 4 Ref Frames
Format settings, CABAC : Yes
Format settings, ReFrames : 4 frames
Codec ID : V_MPEG4/ISO/AVC
Duration : 2 h 2 min
Bit rate mode : Variable
Bit rate : 11.6 Mb/s
Maximum bit rate : 15.0 Mb/s
Width : 1 920 pixels
Height : 1 040 pixels
Display aspect ratio : 1.85:1
Frame rate mode : Constant
Frame rate : 23.976 (24000/1001) FPS
Color space : YUV
Chroma subsampling : 4:2:0
Bit depth : 8 bits
Scan type : Progressive
Bits/(Pixel*Frame) : 0.242
Stream size : 9.90 GiB (97%)
Title : O-Roshiya-koku.suimu-tan.1992.1080p.WEB-DL.DD+2.0.H.264-SbR
Writing library : x264 core 148 r2623 d5b2374
Encoding settings : cabac=1 / ref=4 / deblock=1:-1:-1 / analyse=0x3:0x133 / me=umh / subme=9 / psy=1 / psy_rd=1.00:0.15 / mixed_ref=1 / me_range=24 / chroma_me=1 / trellis=2 / 8x8dct=1 / cqm=0 / deadzone=21,11 / fast_pskip=1 / chroma_qp_offset=-3 / threads=32 / lookahead_threads=5 / sliced_threads=0 / nr=150 / decimate=1 / interlaced=0 / bluray_compat=0 / constrained_intra=0 / bframes=8 / b_pyramid=2 / b_adapt=2 / b_bias=0 / direct=3 / weightb=1 / open_gop=0 / weightp=2 / keyint=120 / keyint_min=61 / scenecut=0 / intra_refresh=0 / rc_lookahead=120 / rc=crf / mbtree=1 / crf=18.0 / qcomp=0.60 / qpmin=0 / qpmax=69 / qpstep=4 / vbv_maxrate=15000 / vbv_bufsize=31250 / crf_max=0.0 / nal_hrd=vbr / filler=0 / ip_ratio=1.40 / aq=3:1.00
Language : Japanese
Default : Yes
Forced : No
Color range : Limited
Color primaries : BT.709
Transfer characteristics : BT.709
Matrix coefficients : BT.709
Audio #1
ID : 2
Format : AC-3
Format/Info : Audio Coding 3
Codec ID : A_AC3
Duration : 2 h 2 min
Bit rate mode : Constant
Bit rate : 192 kb/s
Channel(s) : 2 channels
Channel positions : Front: L R
Sampling rate : 48.0 kHz
Frame rate : 31.250 FPS (1536 SPF)
Bit depth : 16 bits
Compression mode : Lossy
Stream size : 168 MiB (2%)
Title : VO – Cinema Prestige
Language : Russian
Service kind : Complete Main
Default : Yes
Forced : No
Audio #2
ID : 3
Format : E-AC-3
Format/Info : Enhanced Audio Coding 3
Codec ID : A_EAC3
Duration : 2 h 2 min
Bit rate mode : Constant
Bit rate : 224 kb/s
Channel(s) : 2 channels
Channel positions : Front: L R
Sampling rate : 48.0 kHz
Frame rate : 187.500 FPS (256 SPF)
Compression mode : Lossy
Stream size : 196 MiB (2%)
Title : Russian | Japanese
Language : Multiple languages
Service kind : Complete Main
Default : No
Forced : No
Text
ID : 4
Format : UTF-8
Codec ID : S_TEXT/UTF8
Codec ID/Info : UTF-8 Plain Text
Duration : 1 h 59 min
Bit rate : 33 b/s
Count of elements : 933
Stream size : 29.4 KiB (0%)
Language : English
Default : No
Forced : No
Menu
00:00:00.000 : en:Chapter 1
00:04:11.204 : en:Chapter 2
00:14:53.964 : en:Chapter 3
00:26:29.324 : en:Chapter 4
00:32:41.084 : en:Chapter 5
00:39:05.844 : en:Chapter 6
00:47:44.564 : en:Chapter 7
00:58:23.644 : en:Chapter 8
01:10:06.204 : en:Chapter 9
01:14:06.804 : en:Chapter 10
01:22:09.644 : en:Chapter 11
01:32:48.604 : en:Chapter 12
01:43:14.164 : en:Chapter 13
01:49:45.444 : en:Chapter 14
01:55:46.164 : en:Chapter 15
01:59:03.124 : en:Chapter 16



   Похожие торренты   Торрент   Размер 
В этой теме нет новых непрочитанных сообщений. Сны о России / O-Roshiya-koku suimu-tan (1992) DVD9

2 | 2

6.33 ГБ

В этой теме нет новых непрочитанных сообщений. Александр Павлов - Военно-морской флот России и СНГ 1992 г (1992) PDF

14 | 4

122.7 МБ

В этой теме нет новых непрочитанных сообщений. Сны о России (1992) DVDRip

35 | 2

1.5 ГБ

В этой теме нет новых непрочитанных сообщений. Сны о России (1992) DVDRip от ExKinoRay

2 | 4

2.06 ГБ

В этой теме нет новых непрочитанных сообщений. Лев Гумилёв - От Руси до России (1992) (2005) MP3

62 | 1

276.22 МБ

В этой теме нет новых непрочитанных сообщений. Как пьют в России? / How They Drink in Russia? (1992) IPTVRip

1 | 2

244.6 МБ

В этой теме нет новых непрочитанных сообщений. Люпен III: Из России с любовью / Lupin III: From Russia With Love (1992) BDRip 720 | Persona99

10 | 2

2.9 ГБ




Вы не можете начинать темы
Вы не можете отвечать на сообщения
Вы не можете редактировать свои сообщения
Вы не можете удалять свои сообщения
Вы не можете добавлять вложения

Перейти:  
Для Мосгорсуда, Роскомнадзора и рекламодателей: mosgorsud-torrent[собачка]yandex.ru
 Вход
ppkBB3cker v.2 © 2008-2014 @ PPK
[ Time : 0.124s | 18 Queries | GZIP : Off ]

cron