img image001 image001 image001 image001 image001 image001 image001 image001 image001 image001 image001 image001 image001 image001 image001
Planets Sun Sun Sun
Статистика раздачи
Автор: Nickolas3434 | Размер: 3.04 ГБ | Добавлен: 04 фев 2018
Раздают: 293    Качают: 4
Скачать торрент
Скачать торрент
Описание торрента

СообщениеДобавлено: 04 фев 2018 

Информация о фильме
Название: Любовь в городе ангелов
Год выхода: 2017
Жанр: Комедия, мелодрама
Режиссер: Евгений Вихарев
В ролях: Наталья Рудова, Микаэл Арамян, Андрей Свиридов, Константин Лавыш
О фильме:
В Лос Анджелесе, в самом романтичном городе в мире, встретились два самых неромантичных человека — она на первом свидании выбросила его букет в помойку, а он поил ее самым невкусным кофе в городе. Она пришла на второе свидание в одном нижнем белье, а он обманул ее, так и не решившись безрассудно своровать для нее платье в магазине. И тем не менее, это были самые красивые несколько дней в жизни каждого из них. Будет ли у этих отношений продолжение, ведь он даже имени ее не знает? В этом городе, на песочном берегу, конечно, возможно все. Океан нашепчет им мелодию любви и где, как не в Городе Ангелов поверить в настоящую любовь. Пусть даже и на несколько дней.

Страна: Россия
Студия: Большое кино
Продолжительность: 01:21:22
Перевод: Не требуется
Файл
Кодек: h.264
Качество: WEB-DLRip 1080p
Видео: MPEG-4 AVC, 5120 Кбит/с, 1920x800, 24,000 кадр/с
Звук: Русский (AC3, 2 ch, 256 Кбит/с)
Субтитры: Русские (хардсаб на английскую речь)
Семпл
General
Unique ID : 243504604291005367122598050146072216902 (0xB73147E910546E491FE436273C894546)
Complete name : D:uTorrentLjubov.v.gorode.angelov.2017.WEB-DLRip.1080p.MediaClub.mkv
Format : Matroska
Format version : Version 4 / Version 2
File size : 3.04 GiB
Duration : 1 h 21 min
Overall bit rate : 5 357 kb/s
Encoded date : UTC 2018-02-02 21:02:35
Writing application : mkvmerge v19.0.0 ('Brave Captain') 64-bit
Writing library : libebml v1.3.5 + libmatroska v1.4.8
Video
ID : 1
Format : AVC
Format/Info : Advanced Video Codec
Format profile : [email protected]
Format settings : CABAC / 4 Ref Frames
Format settings, CABAC : Yes
Format settings, RefFrames : 4 frames
Codec ID : V_MPEG4/ISO/AVC
Duration : 1 h 21 min
Bit rate : 5 120 kb/s
Width : 1 920 pixels
Height : 800 pixels
Display aspect ratio : 2.40:1
Frame rate mode : Constant
Frame rate : 24.000 FPS
Color space : YUV
Chroma subsampling : 4:2:0
Bit depth : 8 bits
Scan type : Progressive
Bits/(Pixel*Frame) : 0.139
Stream size : 2.90 GiB (95%)
Title : WEB-DLRip by Silverok
Writing library : x264 core 142
Encoding settings : cabac=1 / ref=3 / deblock=1:0:0 / analyse=0x3:0x113 / me=hex / subme=7 / psy=1 / psy_rd=1.00:0.00 / mixed_ref=1 / me_range=16 / chroma_me=1 / trellis=1 / 8x8dct=1 / cqm=0 / deadzone=21,11 / fast_pskip=1 / chroma_qp_offset=-2 / threads=36 / lookahead_threads=6 / sliced_threads=0 / nr=0 / decimate=1 / interlaced=0 / bluray_compat=0 / constrained_intra=0 / bframes=6 / b_pyramid=2 / b_adapt=1 / b_bias=0 / direct=1 / weightb=1 / open_gop=0 / weightp=2 / keyint=48 / keyint_min=25 / scenecut=0 / intra_refresh=0 / rc_lookahead=40 / rc=2pass / mbtree=1 / bitrate=5120 / ratetol=1.0 / qcomp=0.60 / qpmin=0 / qpmax=69 / qpstep=4 / cplxblur=20.0 / qblur=0.5 / vbv_maxrate=7680 / vbv_bufsize=20480 / nal_hrd=none / filler=0 / ip_ratio=1.40 / aq=1:1.00
Default : Yes
Forced : No
Audio
ID : 2
Format : AC-3
Format/Info : Audio Coding 3
Codec ID : A_AC3
Duration : 1 h 21 min
Bit rate mode : Constant
Bit rate : 256 kb/s
Channel(s) : 2 channels
Channel positions : Front: L R
Sampling rate : 48.0 kHz
Frame rate : 31.250 FPS (1536 SPF)
Bit depth : 16 bits
Compression mode : Lossy
Stream size : 149 MiB (5%)
Language : Russian
Service kind : Complete Main
Default : Yes
Forced : No


Релиз от: | Silverok



   Похожие торренты   Торрент   Размер 
В этой теме нет новых непрочитанных сообщений. Любовь в городе ангелов (2017) WEB-DLRip

512 | 31

1.37 ГБ

В этой теме нет новых непрочитанных сообщений. Любовь в городе ангелов (2017) WEB-DLRip-AVC от ExKinoRay

145 | 11

744.93 МБ

В этой теме нет новых непрочитанных сообщений. Любовь в большом городе 3 [01-06 из 08] (2014) WEB-DLRip от MediaClub | Расширенная ТВ-версия

14 | 8

3.81 ГБ

В этой теме нет новых непрочитанных сообщений. Любовь в большом городе 3 [01-08 из 08] (2014) WEB-DLRip от MediaClub | Расширенная ТВ-версия

47 | 73

5.08 ГБ

В этой теме нет новых непрочитанных сообщений. Любовь в большом городе 3 [01-04 из 08] (2014) WEB-DLRip от MediaClub | Расширенная ТВ-версия

10 | 25

2.54 ГБ

В этой теме нет новых непрочитанных сообщений. Любовь в большом городе 3 [01-06 из 08] (2014) HDTV 1080p от MediaClub | Расширенная ТВ-версия

56 | 74

11.73 ГБ

В этой теме нет новых непрочитанных сообщений. Любовь в большом городе 3 [01-08 из 08] (2014) HDTV 1080p от MediaClub | Расширенная ТВ-версия

44 | 72

15.7 ГБ




Вы не можете начинать темы
Вы не можете отвечать на сообщения
Вы не можете редактировать свои сообщения
Вы не можете удалять свои сообщения
Вы не можете добавлять вложения

Перейти:  
Для Мосгорсуда, Роскомнадзора и рекламодателей: mosgorsud-torrent[собачка]yandex.ru
 Вход
ppkBB3cker v.2 © 2008-2014 @ PPK
[ Time : 0.047s | 18 Queries | GZIP : Off ]

cron