img image001 image001 image001 image001 image001 image001 image001 image001 image001 image001 image001 image001 image001 image001 image001 image001
Planets Sun Sun Sun
Статистика раздачи
Автор: Снежана | Размер: 1.67 ГБ | Добавлен: 08 фев 2018
Раздают: 14    Качают: 6
Скачать торрент
Скачать торрент
Описание торрента

СообщениеДобавлено: 08 фев 2018 


Мы "В КОНТАКТЕ"


Страна: СССР
Производство: Ленфильм
Жанр: драма
Год выпуска: 1959
Продолжительность: 01:35:21
Перевод: Не требуется
Cубтитры: нет
Оригинальная аудиодорожка: русский
Режиссер: Юрий Музыкант, Наталья Рашевская
В ролях:
Виталий Полицеймако, Нина Ольхина, Ирина Ефремова (IV), Михаил Иванов, Василий Софронов, Сергей Юрский, Вера Романова, Елена Грановская, Валентина Кибардина, Вера Осокина, Ольга Казико, Зинаида Шарко, Евгений Иванов, Николай Семилетов, Николай Корн, Борис Рыжухин, Виктор Чайников, Евгений Лебедев, Георгий Семёнов, Владислав Стржельчик, Ефим Копелян...
Об актёрах подробней
Описание:
По одноименной пьесе М.Горького. Постановка Ленинградского Большого драматического театра им. Горького.
Июль-декабрь 1917 года, в стране происходит революция. Действие фильма разворачивает в купеческом клубе, в доме Достигаева, в доме Булычова. «Столпы общества» встревожены надвигающимися на них грозными событиями.





Источник: DVD5 R5
Качество видео: DVDRip
Формат видео: AVI
Видео: 688x512 (4:3), 25 fps, XviD ~ 2312 kbps avg, 0.262 bit/pixel
Аудио: 48 kHz, Dolby Digital AC3 2.0, 192 kbps
Раздача от:
Общее
Полное имя : Dostigaev.i.drugie.1959.DVDRip_[New-team]_by_AVP_Studio.avi
Формат : AVI
Формат/Информация : Audio Video Interleave
Размер файла : 1,67 Гбайт
Продолжительность : 1 ч. 35 м.
Общий поток : 2513 Кбит/сек
Программа кодирования : VirtualDubMod 1.5.10.3 | www.virtualdub-fr.org || (build 2550/release)
Библиотека кодирования : VirtualDubMod build 2550/release
Видео
Идентификатор : 0
Формат : MPEG-4 Visual
Профиль формата : Advanced [email protected]
Настройки формата : BVOP1 / Custom Matrix
Параметр BVOP формата : 1
Параметр QPel формата : Нет
Параметр GMC формата : Без точки перехода
Параметр матрицы формата : Выборочная
Идентификатор кодека : XVID
Идентификатор кодека/Подсказка : XviD
Продолжительность : 1 ч. 35 м.
Битрейт : 2312 Кбит/сек
Ширина : 688 пикселей
Высота : 512 пикселей
Соотношение сторон : 4:3
Частота кадров : 25,000 кадров/сек
Цветовое пространство : YUV
Субдискретизация насыщенности : 4:2:0
Битовая глубина : 8 бит
Тип развёртки : Прогрессивная
Метод сжатия : С потерями
Бит/(Пиксели*Кадры) : 0.262
Размер потока : 1,54 Гбайт (92%)
Библиотека кодирования : XviD 73
Аудио
Идентификатор : 1
Формат : AC-3
Формат/Информация : Audio Coding 3
Идентификатор кодека : 2000
Продолжительность : 1 ч. 35 м.
Вид битрейта : Постоянный
Битрейт : 192 Кбит/сек
Каналы : 2 канала
Расположение каналов : Front: L R
Частота : 48,0 КГц
Частота кадров : 31,250 кадров/сек (1536 SPF)
Битовая глубина : 16 бит
Метод сжатия : С потерями
Размер потока : 131 Мбайт (8%)
Выравнивание : Разделение по промежуткам
Продолжительность промежутка : 40 мс. (1,00 видеокадр)
Время предзагрузки промежутка : 500 мс





   Похожие торренты   Торрент   Размер 
В этой теме нет новых непрочитанных сообщений. Достигаев и другие (1959) DVDRip-AVC от New-Team

7 | 1

1.09 ГБ

В этой теме нет новых непрочитанных сообщений. Егор Булычов и другие (1953) DVDRip от New-Team

0 | 0

2.18 ГБ

В этой теме нет новых непрочитанных сообщений. Егор Булычов и другие (1953) DVDRip от New-Team

В этой теме нет новых непрочитанных сообщений. Егор Булычов и другие (1953) DVDRip от New-Team

В этой теме нет новых непрочитанных сообщений. Егор Булычов и другие (1953) DVDRip от New-Team

2 | 0

1.09 ГБ

В этой теме нет новых непрочитанных сообщений. Егор Булычов и другие (1953) DVDRip-AVC от New-Team

15 | 6

2.18 ГБ

В этой теме нет новых непрочитанных сообщений. Звероловы (1959) DVDRip от New-Team

6 | 0

1.09 ГБ




Вы не можете начинать темы
Вы не можете отвечать на сообщения
Вы не можете редактировать свои сообщения
Вы не можете удалять свои сообщения
Вы не можете добавлять вложения

Перейти:  
Для Мосгорсуда, Роскомнадзора и рекламодателей: mosgorsud-torrent[собачка]yandex.ru
 Вход
ppkBB3cker v.2 © 2008-2014 @ PPK
[ Time : 0.028s | 18 Queries | GZIP : Off ]

cron