img image001 image001 image001 image001 image001 image001 image001 image001 image001 image001 image001 image001 image001 image001 image001
Planets Sun Sun Sun
Статистика раздачи
Автор: Nickolas3434 | Размер: 14.09 ГБ | Добавлен: 26 авг 2017
Раздают: 50    Качают: 4
Скачать торрент
Скачать торрент
Описание торрента

СообщениеДобавлено: 26 авг 2017 

Информация о фильме
Название: Рокко
Оригинальное название: Rocco
Год выхода: 2016
Жанр: документальный, биография
Режиссер: Тьерри Демезьер, Альбан Терле
В ролях: Рокко Сиффреди, Роза Карачиоло, Абелла Дейнджер, Джеймс Дин, Габриэль Галетта, Марк Шпиглер, Келли Стэффорд, Джон Стаглиано, Леонардо Тано, Лоренцо Тано
О фильме:
Фильм рассказывает историю жизни Рокко Сиффреди — мировой знаменитости, суперзвезды первой величины международной порноиндустрии, который, фактически, является ее живым олицетворением. Его мать хотела, чтобы он стал священником, но Рокко посвятил свою жизнь служению другому «богу» — желанию.
Не рекомендуется к просмотру лицам до 18 лет

Страна: Франция
Студия: Centre National de la Cinématographie (CNC), Falabracks, Mars Films, Orange Cinéma Séries, Program 33
Продолжительность: 01:42:35
Перевод: Профессиональный (двухголосный, закадровый)
Файл
Кодек: H.264
Качество: BDRip 1080p | P2
Видео: MPEG-4 / AVC, 1920x804 (2.40:1), 24 fps ~ 18.2 Mbps
Звук:
AC3, 48 KHz, 6 ch ~ 384 Kb/s (русский)
AC3, 48 KHz, 6 ch ~ 640 Kb/s (итальянский)
Субтитры: французские
Общее
Уникальный идентификатор : 175984568551159241933778052088683767880 (0x84656520D5CC311A8C2F7B1495D32848)
Полное имя : Q:TorFRocco 2016 1080p BluRay DD5.1 x264-EA.mkv
Формат : Matroska
Версия формата : Version 4 / Version 2
Размер файла : 14,1 Гбайт
Продолжительность : 1 ч. 42 м.
Общий поток : 19,7 Мбит/сек
Дата кодирования : UTC 2017-08-12 11:28:21
Программа кодирования : mkvmerge v13.0.0 ('The Juggler') 64bit
Библиотека кодирования : libebml v1.3.4 + libmatroska v1.4.5
DURATION : 01:42:35.264000000
NUMBER_OF_FRAMES : 192352
NUMBER_OF_BYTES : 295452672
_STATISTICS_WRITING_APP : mkvmerge v13.0.0 ('The Juggler') 64bit
_STATISTICS_WRITING_DATE_UTC : 2017-08-12 11:28:21
_STATISTICS_TAGS : BPS DURATION NUMBER_OF_FRAMES NUMBER_OF_BYTES
Видео
Идентификатор : 1
Формат : AVC
Формат/Информация : Advanced Video Codec
Профиль формата : [email protected]
Параметр CABAC формата : Да
Параметр ReFrames формата : 5 кадров
Идентификатор кодека : V_MPEG4/ISO/AVC
Продолжительность : 1 ч. 42 м.
Битрейт : 18,2 Мбит/сек
Ширина : 1920 пикселей
Высота : 804 пикселя
Соотношение сторон : 2,40:1
Частота кадров : 24,000 кадра/сек
Цветовое пространство : YUV
Субдискретизация насыщенности : 4:2:0
Битовая глубина : 8 бит
Тип развёртки : Прогрессивная
Бит/(Пиксели*Кадры) : 0.492
Размер потока : 13,1 Гбайт (93%)
Библиотека кодирования : x264 core 148 r2762+56 6284cf3 t_mod_Custom [[email protected] X86_64]
Настройки программы : cabac=1 / ref=5 / deblock=1:-3:-3 / analyse=0x3:0x113 / me=umh / subme=10 / psy=1 / fade_compensate=0.00 / psy_rd=1.04:0.00 / mixed_ref=1 / me_range=32 / chroma_me=1 /
trellis=2 / 8x8dct=1 / cqm=0 / deadzone=21,11 / fast_pskip=0 / chroma_qp_offset=-2 / threads=24 / lookahead_threads=4 / sliced_threads=0 / nr=0 / decimate=0 / interlaced=0 / bluray_compat=0 /
constrained_intra=0 / fgo=0 / bframes=8 / b_pyramid=2 / b_adapt=2 / b_bias=0 / direct=3 / weightb=1 / open_gop=0 / weightp=2 / keyint=240 / keyint_min=24 / scenecut=40 / intra_refresh=0 /
rc_lookahead=60 / rc=crf / mbtree=0 / crf=17.9000 / qcomp=0.75 / qpmin=0:0:0 / qpmax=69:69:69 / qpstep=4 / vbv_maxrate=62500 / vbv_bufsize=78125 / crf_max=0.0 / nal_hrd=none / filler=0 / ip_ratio=1.30 /
pb_ratio=1.20 / aq=3:0.75 / aq-sensitivity=10.00 / aq-factor=1.00:1.00:1.00 / aq2=1:0.70 / aq2-sensitivity=15.00 / aq2-factor=1.00:1.00:1.00 / aq3=1:[0.70:0.70]:[0.70:0.70]:[0.70:0.70]:[0.70:0.70] / aq3-
sensitivity=10.00 / aq3-factor=[1.00:1.00]:[1.00:1.00]:[1.00:1.00] / aq3-boundary=192:64:24
Язык : Italian
Default : Да
Forced : Нет
DURATION : 01:42:35.250000000
NUMBER_OF_FRAMES : 147726
NUMBER_OF_BYTES : 14318131738
_STATISTICS_WRITING_APP : mkvmerge v13.0.0 ('The Juggler') 64bit
_STATISTICS_WRITING_DATE_UTC : 2017-08-12 11:28:21
_STATISTICS_TAGS : BPS DURATION NUMBER_OF_FRAMES NUMBER_OF_BYTES
Основные цвета : BT.709-5, BT.1361, IEC 61966-2-4, SMPTE RP177
Характеристики трансфера : BT.709-5, BT.1361
Коэффициенты матрицы : BT.709-5, BT.1361, IEC 61966-2-4 709, SMPTE RP177
Аудио #1
Идентификатор : 2
Формат : AC-3
Формат/Информация : Audio Coding 3
Расширение режима : CM (complete main)
Идентификатор кодека : A_AC3
Продолжительность : 1 ч. 42 м.
Вид битрейта : Постоянный
Битрейт : 384 Кбит/сек
Каналы : 6 каналов
Расположение каналов : Front: L C R, Side: L R, LFE
Частота : 48,0 КГц
Битовая глубина : 16 бит
Метод сжатия : С потерями
Размер потока : 282 Мбайт (2%)
Язык : Russian
Default : Да
Forced : Нет
Аудио #2
Идентификатор : 3
Формат : AC-3
Формат/Информация : Audio Coding 3
Расширение режима : CM (complete main)
Идентификатор кодека : A_AC3
Продолжительность : 1 ч. 42 м.
Вид битрейта : Постоянный
Битрейт : 640 Кбит/сек
Каналы : 6 каналов
Расположение каналов : Front: L C R, Side: L R, LFE
Частота : 48,0 КГц
Битовая глубина : 16 бит
Метод сжатия : С потерями
Размер потока : 470 Мбайт (3%)
Язык : Italian
Default : Нет
Forced : Нет
Текст #1
Идентификатор : 4
Формат : UTF-8
Идентификатор кодека : S_TEXT/UTF8
Идентификатор кодека/Информация : UTF-8 Plain Text
Заголовок : srt
Язык : French
Default : Нет
Forced : Нет
Текст #2
Идентификатор : 5
Формат : PGS
Режим смешивания : zlib
Идентификатор кодека : S_HDMV/PGS
Идентификатор кодека/Информация : The same subtitle format used on BDs/HD-DVDs
Заголовок : sup
Язык : French
Default : Нет
Forced : Нет
Текст #3
Идентификатор : 6
Формат : UTF-8
Идентификатор кодека : S_TEXT/UTF8
Идентификатор кодека/Информация : UTF-8 Plain Text
Заголовок : srt HoH
Язык : French
Default : Нет
Forced : Нет
Текст #4
Идентификатор : 7
Формат : PGS
Режим смешивания : zlib
Идентификатор кодека : S_HDMV/PGS
Идентификатор кодека/Информация : The same subtitle format used on BDs/HD-DVDs
Заголовок : sup HoH
Язык : French
Default : Нет
Forced : Нет
Меню
00:00:00.000 : en:00:00:00.000
00:09:41.833 : en:00:09:41.833
00:20:12.083 : en:00:20:12.083
00:34:54.583 : en:00:34:54.583
00:43:33.625 : en:00:43:33.625
00:57:02.167 : en:00:57:02.167
01:10:35.125 : en:01:10:35.125
01:19:07.417 : en:01:19:07.417
01:27:43.167 : en:01:27:43.167

Скриншоты:



   Похожие торренты   Торрент   Размер 
В этой теме нет новых непрочитанных сообщений. Рокко / Rocco (2016) HDRip | P2

106 | 14

1.46 ГБ

В этой теме нет новых непрочитанных сообщений. Рокко: Легенда крупным планом / Rocco (2016) WEBDLRip - AVC | P

40 | 0

1.39 ГБ

В этой теме нет новых непрочитанных сообщений. Рокко и его братья / Rocco e i suoi fratelli (1960) BDRip 720p от KORSAR | P

10 | 1

11.24 ГБ

В этой теме нет новых непрочитанных сообщений. Рокко и его братья / Rocco e i suoi fratelli (1960) DVD9

5 | 3

7.43 ГБ

В этой теме нет новых непрочитанных сообщений. Рокко и его братья / Rocco e i suoi fratelli (1960) DVDRip от MediaClub | КПК

20 | 5

762.91 МБ

В этой теме нет новых непрочитанных сообщений. Рокко и его братья / Rocco e i suoi fratelli (1960) HDRip-AVC от Kaztorrents | P

21 | 2

2.16 ГБ

В этой теме нет новых непрочитанных сообщений. Рокко и его братья / Rocco e i suoi fratelli (1960) DVDRip от Generalfilm

14 | 3

2.17 ГБ




Вы не можете начинать темы
Вы не можете отвечать на сообщения
Вы не можете редактировать свои сообщения
Вы не можете удалять свои сообщения
Вы не можете добавлять вложения

Перейти:  
Для Мосгорсуда, Роскомнадзора и рекламодателей: mosgorsud-torrent[собачка]yandex.ru
 Вход
ppkBB3cker v.2 © 2008-2014 @ PPK
[ Time : 0.048s | 18 Queries | GZIP : Off ]

cron