img image001 image001 image001 image001 image001 image001 image001 image001 image001 image001 image001 image001 image001 image001 image001 image001
Planets Sun Sun Sun
Статистика раздачи
Автор: Снежана | Размер: 5.03 ГБ | Добавлен: 08 фев 2018
Раздают: 156    Качают: 7
Скачать торрент
Скачать торрент
Описание торрента

СообщениеДобавлено: 08 фев 2018 

Информация о фильме
Название: Сталинградская битва (1-2 серии из 2)
Год выхода: 2013
Жанр: Документальный, Военный, История
Режиссер: Ирина Прокудина
Автор: Сергей Пашков
О фильме:
17 июля 1942 года началась Сталинградская битва – одно из главных переломных сражений Великой Отечественной войны. 200 дней и ночей ожесточенных боев завершились решающей победой русских войск. После поражения под Сталинградом Гитлер объявил в Третьем рейхе трехдневный траур. Слово Сталинград стало синонимом стойкости русской армии, мужества русского солдата. Разгром гитлеровцев в Сталинградской битве - наряду с успешной обороной Москвы и сражением на Курской дуге - ключевой переломный момент Второй мировой войны в целом: немецкие войска тогда окончательно потеряли стратегическую инициативу, а растерянность и замешательство в странах Оси привели к кризису профашистских режимов в Италии, Румынии, Венгрии и Словакии.
Текст читают Сергей Пашков, Сергей Мачалин и Александр Дудаков. Сценарий описывает битву между советской армией и гитлеровскими войсками от третьего лица. Фокус внимания сосредоточен тяготах войны, потерях советских и немецких солдат, на страданиях мирного населения, женщин, стариков и детей. Предоставлены данные о вооружении нашей армии и фашистских войск.
Страна: Россия
Студия: ВГТРК, Россия 1 HD, «МБ групп»
Продолжительность: 2 x ~00:43:00
Перевод: Не требуется
Файл
Кодек: h.264
Качество: HDTV 1080i
Видео: AVC MPEG-4, 1920x1080 (16:9), ~8000 Kbps
Звук: AAC, 2 ch, 254 Kbps
General
Unique ID : 320352306032219890322095238164825195457 (0xF1019C2204FAA1AC99400521F67F43C1)
Complete name : D:FilmСталинградская битваСерия 1 - Над бездной.mkv
Format : Matroska
Format version : Version 4 / Version 2
File size : 2.57 GiB
Duration : 44 min 44 s
Overall bit rate : 8 222 kb/s
Encoded date : UTC 2018-02-04 19:10:46
Writing application : mkvmerge v20.0.0 ('I Am The Sun') 64-bit
Writing library : libebml v1.3.5 + libmatroska v1.4.8
Cover : Yes
Attachments : cover.png
Video
ID : 1
Format : AVC
Format/Info : Advanced Video Codec
Format profile : [email protected]
Format settings : CABAC / 4 Ref Frames
Format settings, CABAC : Yes
Format settings, RefFrames : 4 frames
Codec ID : V_MPEG4/ISO/AVC
Duration : 44 min 44 s
Bit rate : 7 959 kb/s
Width : 1 920 pixels
Height : 1 080 pixels
Display aspect ratio : 16:9
Frame rate mode : Variable
Frame rate : 50.000 FPS
Original frame rate : 25.000 FPS
Standard : Component
Color space : YUV
Chroma subsampling : 4:2:0
Bit depth : 8 bits
Scan type : Interlaced
Scan type, store method : Separated fields
Scan order : Top Field First
Bits/(Pixel*Frame) : 0.077
Stream size : 2.49 GiB (97%)
Language : Russian
Default : Yes
Forced : No
Color range : Limited
Color primaries : BT.709
Transfer characteristics : BT.709
Matrix coefficients : BT.709
Audio
ID : 2
Format : AAC
Format/Info : Advanced Audio Codec
Format profile : LC
Codec ID : A_AAC-2
Duration : 44 min 44 s
Bit rate : 254 kb/s
Channel(s) : 2 channels
Channel positions : Front: L R
Sampling rate : 44.1 kHz
Frame rate : 43.066 FPS (1024 SPF)
Compression mode : Lossy
Stream size : 81.2 MiB (3%)
Language : Russian
Default : Yes
Forced : No
_____________________________________________________________________________________
General
Unique ID : 143210453207268753660882046125621081324 (0x6BBD547C11314642C2A69421EF9774EC)
Complete name : D:FilmСталинградская битваСерия 2 - Перелом.mkv
Format : Matroska
Format version : Version 4 / Version 2
File size : 2.46 GiB
Duration : 42 min 3 s
Overall bit rate : 8 362 kb/s
Encoded date : UTC 2018-02-04 19:17:11
Writing application : mkvmerge v20.0.0 ('I Am The Sun') 64-bit
Writing library : libebml v1.3.5 + libmatroska v1.4.8
Cover : Yes
Attachments : cover.png
Video
ID : 1
Format : AVC
Format/Info : Advanced Video Codec
Format profile : [email protected]
Format settings : CABAC / 4 Ref Frames
Format settings, CABAC : Yes
Format settings, RefFrames : 4 frames
Codec ID : V_MPEG4/ISO/AVC
Duration : 41 min 52 s
Bit rate : 8 137 kb/s
Width : 1 920 pixels
Height : 1 080 pixels
Display aspect ratio : 16:9
Frame rate mode : Constant
Frame rate : 25.000 FPS
Standard : Component
Color space : YUV
Chroma subsampling : 4:2:0
Bit depth : 8 bits
Scan type : Interlaced
Scan type, store method : Separated fields
Scan order : Top Field First
Bits/(Pixel*Frame) : 0.157
Stream size : 2.38 GiB (97%)
Language : Russian
Default : No
Forced : No
Color range : Limited
Color primaries : BT.709
Transfer characteristics : BT.709
Matrix coefficients : BT.709
Audio
ID : 2
Format : AAC
Format/Info : Advanced Audio Codec
Format profile : LC
Codec ID : A_AAC-2
Duration : 42 min 3 s
Bit rate : 254 kb/s
Channel(s) : 2 channels
Channel positions : Front: L R
Sampling rate : 44.1 kHz
Frame rate : 43.066 FPS (1024 SPF)
Compression mode : Lossy
Stream size : 76.3 MiB (3%)
Language : Russian
Default : Yes
Forced : No
Серия 1 - Над бездной
Серия 2 - Перелом




Релиз от: NNMClub



   Похожие торренты   Торрент   Размер 
В этой теме нет новых непрочитанных сообщений. Сталинградская битва [эфир от 02.02.2013] SATRip

13 | 1

1003.05 МБ

В этой теме нет новых непрочитанных сообщений. Сталинградская Битва (2012) DVBRip

46 | 4

1.46 ГБ

В этой теме нет новых непрочитанных сообщений. Сталинградская битва (1949) DVDRip от New-Team

62 | 13

1.46 ГБ

В этой теме нет новых непрочитанных сообщений. Сталинградская битва (1949) DVDRip от New-Team

25 | 7

2.18 ГБ

В этой теме нет новых непрочитанных сообщений. Сталинградская битва (1949) DVDRip от Русфильм

30 | 5

2.05 ГБ

В этой теме нет новых непрочитанных сообщений. Сталинградская битва (1949) DVDRip-AVC от New-Team

164 | 10

2.9 ГБ

В этой теме нет новых непрочитанных сообщений. Discovery. Битва за недвижимость / Property Wars [02х01-02 из 24] (2013) HDTV 1080i от GeneralFilm | P1

3 | 3

9.15 ГБ




Вы не можете начинать темы
Вы не можете отвечать на сообщения
Вы не можете редактировать свои сообщения
Вы не можете удалять свои сообщения
Вы не можете добавлять вложения

Перейти:  
Для Мосгорсуда, Роскомнадзора и рекламодателей: mosgorsud-torrent[собачка]yandex.ru
 Вход
ppkBB3cker v.2 © 2008-2014 @ PPK
[ Time : 0.048s | 18 Queries | GZIP : Off ]

cron