img image001 image001 image001 image001 image001 image001 image001 image001 image001 image001 image001 image001 image001 image001 image001 image001
Planets Sun Sun Sun
Статистика раздачи
Автор: PriZraK | Размер: 237.83 МБ | Добавлен: 12 фев 2018
Раздают: 8    Качают: 3
Скачать торрент
Скачать торрент
Описание торрента

СообщениеДобавлено: 12 фев 2018 

Бесогон ТВ. Иллюстрация люстрации (Эфир от 02.02.2018)

Перевод: Не требуется, cубтитры: отсутствуют
Формат: WEBRip, MKV, H.264, AAC
Страна: Россия
Режиссер: Никита Михалков
Жанр: документальный, авторская, информационно-аналитическая программа
Продолжительность: 00:35:31
Год выпуска: 2018

Описание: Из выпуска Бесогон ТВ, Никита Михалков: «Люстрировать по возрасту - такое Геббельсу не снилось, Гимлеру. Это сладкий сон! И после этого вы можете как-то осуждать репрессии 37 года, сталинизм, кровавый режим? Вы сами то понимаете, что вы говорите? Т.е. другими словами, человек рожденный в 79-м, 75-м, я уже не говорю про наше поколение - это уже всё, секир-башка. Но тем, кому 40, 45, 50 - в самом расцвете - не допускать, люстрировать, лишить права управлять, думать, заниматься производством. А вы не думали, что бумеранг обратно может развернуться? Кому-то не понравится то, что вы говорите, и возникнет некое общество, может быть, довольно многолюдное, которое решит - а не проверить ли вам черепа по их форме, размеру, принадлежите вы к расе, которая вообще имеет право на свете жить...»

В выпуске: Александр Невзоров и Патриарх Кирилл, Константин Юрченко и лекция про потерянное поколение, Карина Орлова и люстрация всех лиц по возрасту до 1980 года рождения, великодушный президент, Альфред Кох и самооккупация, Константин Боровой и внешняя сила, Лео Мускато и модный тренд, Спящая красавица и пропаганда изнасилования, Пол Джозеф Уотсон и правда о поп-культуре, Слабоумная толерантность, идиократия и массовое безумие


Видео: 1920x1080 (16:9), 25 fps, AVC MPEG-4 ([email protected]) ~807 kbps, 0.01 bit/pixel
Аудио: 44.1 kHz, AAC, 2 ch, ~126 kbps


General
Unique ID : 294685373118316784118749298191696488105 (0xDDB256A3189ACAE895966D5C210166A9)
Complete name : D:\Film\БесогонТВ Иллюстрация люстрации.mkv
Format : Matroska
Format version : Version 4 / Version 2
File size : 238 MiB
Duration : 35 min 31 s
Overall bit rate : 936 kb/s
Encoded date : UTC 2018-02-05 15:41:30
Writing application : mkvmerge v20.0.0 ('I Am The Sun') 64-bit
Writing library : libebml v1.3.5 + libmatroska v1.4.8
Cover : Yes
Attachments : cover.png

Video
ID : 1
Format : AVC
Format/Info : Advanced Video Codec
Format profile : [email protected]
Format settings : CABAC / 3 Ref Frames
Format settings, CABAC : Yes
Format settings, RefFrames : 3 frames
Codec ID : V_MPEG4/ISO/AVC
Duration : 35 min 31 s
Bit rate : 807 kb/s
Width : 1 920 pixels
Height : 1 080 pixels
Display aspect ratio : 16:9
Frame rate mode : Constant
Frame rate : 25.000 FPS
Color space : YUV
Chroma subsampling : 4:2:0
Bit depth : 8 bits
Scan type : Progressive
Bits/(Pixel*Frame) : 0.016
Stream size : 205 MiB (86%)
Language : Russian
Default : Yes
Forced : No
Color range : Limited
Color primaries : BT.709
Transfer characteristics : BT.709
Matrix coefficients : BT.709

Audio
ID : 2
Format : AAC
Format/Info : Advanced Audio Codec
Format profile : LC
Codec ID : A_AAC-2
Duration : 35 min 31 s
Bit rate : 126 kb/s
Channel(s) : 2 channels
Channel positions : Front: L R
Sampling rate : 44.1 kHz
Frame rate : 43.066 FPS (1024 SPF)
Compression mode : Lossy
Stream size : 31.9 MiB (13%)
Language : Russian
Default : Yes
Forced : No









   Похожие торренты   Торрент   Размер 
В этой теме нет новых непрочитанных сообщений. Бесогон ТВ. Письмо товарищу Сталину (Эфир от 16.02.2018) (Никита Михалков) [2018, документальный, авторская, информационно-аналитическая программа, WEBRip 1080p]

13 | 3

347.43 МБ

В этой теме нет новых непрочитанных сообщений. Познер. Шамиль Тарпищев (Эфир от 05.02.2018) [2018, документальная, информационно-аналитическая программа, SATRip]

0 | 0

708.27 МБ

В этой теме нет новых непрочитанных сообщений. Вечер с Владимиром Соловьевым / Эфир от 06.02.2018 / ТК "Россия-1" HD [2018, Информационно-аналитическая программа, MKV, Stream/720р, RU]

0 | 0

4.14 ГБ

В этой теме нет новых непрочитанных сообщений. Вечер с Владимиром Соловьевым / Эфир от 05.02.2018 / ТК "Россия-1" HD [2018, Информационно-аналитическая программа, MKV, Stream/720р, RU]

0 | 0

4.05 ГБ

В этой теме нет новых непрочитанных сообщений. Вечер с Владимиром Соловьевым / Эфир от 07.02.2018 / ТК "Россия-1" HD [2018, Информационно-аналитическая программа, MKV, Stream/720р, RU]

6 | 0

4.52 ГБ

В этой теме нет новых непрочитанных сообщений. Вечер с Владимиром Соловьевым / Эфир от 19.02.2018 / ТК "Россия-1" HD [2018, Информационно-аналитическая программа, MKV, Stream/720р, RU]

3 | 7

2.67 ГБ

В этой теме нет новых непрочитанных сообщений. Вечер с Владимиром Соловьевым / Эфир от 12.02.2018 / ТК "Россия-1" HD [2018, Информационно-аналитическая программа, MKV, Stream/720р, RU]

5 | 2

4.07 ГБ




Вы не можете начинать темы
Вы не можете отвечать на сообщения
Вы не можете редактировать свои сообщения
Вы не можете удалять свои сообщения
Вы не можете добавлять вложения

Перейти:  
Для Мосгорсуда, Роскомнадзора и рекламодателей: mosgorsud-torrent[собачка]yandex.ru
 Вход
ppkBB3cker v.2 © 2008-2014 @ PPK
[ Time : 0.044s | 18 Queries | GZIP : Off ]

cron