img image001 image001 image001 image001 image001 image001 image001 image001 image001 image001 image001 image001 image001 image001 image001 image001
Planets Sun Sun Sun
Статистика раздачи
Автор: PriZraK | Размер: 2.8 ГБ | Добавлен: 12 фев 2018
Раздают: 14    Качают: 3
Скачать торрент
Скачать торрент
Описание торрента

СообщениеДобавлено: 12 фев 2018 

Мириады цветов фантомного мира / Musaigen no Phantom World



Жанр: приключения, комедия, мистика
Продолжительность: ТВ (13 эп.), 24 мин.
Рейтинг World-art: 7.3 из 10
Рейтинг IMDb: 6.5 из 10
Рейтинг КиноПоиск.RU: 6.4 из 10
Рейтинг рейтинг MPAA: PG

Перевод: Двухголосый, закадровый
Озвучивание: Zendos & Eladiel [Onibaku]

Страна: Япония
Режиссер: Исихара Тацуя
Студия: Kyoto Animation & Animation Do
Формат: HDRip, MKV, H.265, AC3
Год выпуска: 2016

В главных ролях: Харухико Итидзё, Май Каваками, Рэйна Идзуми, Руру, Куруми Кумамакура
Роли озвучивали: Хиро Симоно, Сумирэ Уэсака, Саори Хаями, Адзуса Тадокоро, Мисаки Куно

Описание: В начале XXI века в одной из лабораторий на свободу вырвался вирус, который быстро распространился по земле и вызвал в мозгах людей изменения, позволившие им видеть существ, которых стали называть «фантомы».
Пока ученые ломали голову, простые люди быстро привыкли к призракам и прочим аякаси – с кем дружат, а кого гоняют в хвост и гриву. Кроме того, вирус привёл к рождению детей с паранормальными силами, которые сражаются с «фантомами» за различные вознаграждения.
Главный герой, Харухико Ичиджо, — обладатель способности, с помощью которой он может запечатывать фантомов. Так уж случилось, что ему повезло быть не единственным в своей школе, кто борется с нечистью, разбавляя свою размеренную жизнь опасными схватками. Ими также являются — знойная красавица, обладающая силой «пяти элементов», Май Каваками, способная в буквальном смысле пожирать фантомов Рэйна Изуми, и боец-одиночка Който Минасэ. Все они до поры до времени живут своей повседневной жизнью, пока не узнают о крупной организации, которая пользуется последствиями инцидента, породившего людей нового, фантомного мира.


Хардсаб: отсутствует
Cубтитры: отсутствуют
Видео: 1280x720 (16:9), 23.976 fps, HEVC (x265) @Main, ~ 1400 kbps avg, 0.063 bit/pixel, 8 bits
Аудио: AC-3, 44.1 KHz, 2 ch, (Front: L R), ~192 kbps avg

Общее
Уникальный идентификатор : 103131056651904537763395517722691392148 (0x4D9651AB4F23651D67B7999858105294)
Полное имя : F:\Торрент\Файлы\Musaigen_no_Phantom_World_2016_720p_H265\Musaigen no Phantom World S1-01.mkv
Формат : Matroska
Версия формата : Version 4 / Version 2
Размер файла : 276 Мбайт
Продолжительность : 23 м.
Общий поток : 1626 Кбит/сек
Программа кодирования : Lavf57.41.100
Библиотека кодирования : Lavf57.41.100 / Lavf57.41.100

Видео
Идентификатор : 1
Формат : HEVC
Формат/Информация : High Efficiency Video Coding
Профиль формата : @Main
Идентификатор кодека : V_MPEGH/ISO/HEVC
Продолжительность : 23 м.
Битрейт : 1402 Кбит/сек
Ширина : 1280 пикселей
Высота : 720 пикселей
Соотношение сторон : 16:9
Режим частоты кадров : Постоянный
Частота кадров : 23,976 (23976/1000) кадра/сек
Цветовое пространство : YUV
Субдискретизация насыщенности : 4:2:0
Битовая глубина : 8 бит
Бит/(Пиксели*Кадры) : 0.063
Размер потока : 238 Мбайт (86%)
Библиотека кодирования : x265 1.9:[Windows][GCC 4.9.3][32 bit] 8bit
Настройки программы : wpp / ctu=64 / min-cu-size=8 / max-tu-size=32 / tu-intra-depth=1 / tu-inter-depth=1 / me=1 / subme=2 / merange=57 / no-rect / no-amp / max-merge=2 / temporal-mvp / no-early-skip / rdpenalty=0 / no-tskip / no-tskip-fast / strong-intra-smoothing / no-lossless / no-cu-lossless / no-constrained-intra / no-fast-intra / open-gop / no-temporal-layers / interlace=0 / keyint=250 / min-keyint=23 / scenecut=40 / rc-lookahead=20 / lookahead-slices=4 / bframes=4 / bframe-bias=0 / b-adapt=2 / ref=3 / limit-refs=3 / no-limit-modes / weightp / no-weightb / aq-mode=1 / qg-size=32 / aq-strength=1.00 / cbqpoffs=0 / crqpoffs=0 / rd=3 / psy-rd=2.00 / rdoq-level=0 / psy-rdoq=0.00 / signhide / deblock / sao / no-sao-non-deblock / b-pyramid / cutree / no-intra-refresh / rc=crf / crf=20.0 / qcomp=0.60 / qpmin=0 / qpmax=51 / qpstep=4 / ipratio=1.40 / pbratio=1.30
Default : Нет
Forced : Нет
Statistics Tags Issue : mkvmerge v14.0.0 ('Flow') 64bit 2017-10-18 16:53:45 / Lavf57.41.100
FromStats_BitRate : 5095818
FromStats_Duration : 00:23:41.428000000
FromStats_FrameCount : 34080
FromStats_StreamSize : 905412347

Аудио
Идентификатор : 2
Формат : AC-3
Формат/Информация : Audio Coding 3
Расширение режима : CM (complete main)
Параметр Endianness формата : Big
Идентификатор кодека : A_AC3
Продолжительность : 23 м.
Вид битрейта : Постоянный
Битрейт : 192 Кбит/сек
Каналы : 2 канала
Расположение каналов : Front: L R
Частота : 44,1 КГц
Частота кадров : 28,711 кадров/сек (1536 spf)
Битовая глубина : 32 бит
Метод сжатия : С потерями
Размер потока : 32,5 Мбайт (12%)
Библиотека кодирования : Lavc57.48.101 ac3
Язык : Russian
Default : Да
Forced : Нет
Statistics Tags Issue : mkvmerge v14.0.0 ('Flow') 64bit 2017-10-18 16:53:45 / Lavf57.41.100
FromStats_BitRate : 192000
FromStats_Duration : 00:23:41.445000000
FromStats_FrameCount : 44420
FromStats_StreamSize : 34114560




   Похожие торренты   Торрент   Размер 
В этой теме нет новых непрочитанных сообщений. Призрачный мир мириады цветов / Бескрайний мир фантомов / Musaigen no Phantom World (Исихара Тацуя) [TV+SP] [13+8 из 13+8] [RAW] [RUS] [2016, приключения, комедия, мистика, HDTVRip] [720p]

13 | 3

4.98 ГБ

В этой теме нет новых непрочитанных сообщений. Мириады цветов фантомного мира / Myriad Colors Phantom World (Исихара Тацуя) [TV-1] [1-2 из 12] [OVERLORDS] [RAW] [RUS] [2016 г., приключения, HDTVRip] [720p]

5 | 2

708.38 МБ

В этой теме нет новых непрочитанных сообщений. Мириады цветов фантомного мира / Musaigen no Phantom World [01-04 из 12] (2016) HDTVRip 720p | SEKAI-PROJECT

29 | 10

1.98 ГБ

В этой теме нет новых непрочитанных сообщений. Мириады Цветов Фантомного Мира / Musaigen no Phantom World [01-03 из 12] (2016) HDTVRip 720p | SEKAI-PROJECT

54 | 12

1.6 ГБ

В этой теме нет новых непрочитанных сообщений. Мириады цветов фантомного мира / Musaigen no Phantom World [01-13 из 13] (2016) HDTVRip 720p | SEKAI-PROJECT

34 | 7

6.33 ГБ

В этой теме нет новых непрочитанных сообщений. Мириады Цветов Фантомного Мира / Musaigen no Phantom World [01-02 из 12] (2016) HDTVRip 720p | SEKAI-PROJECT

17 | 5

1.08 ГБ

В этой теме нет новых непрочитанных сообщений. Мириады цветов фантомного мира / Musaigen no Phantom World [01-10 из 12] (2016) HDTVRip 720p | SEKAI-PROJECT

2 | 1

5.02 ГБ




Вы не можете начинать темы
Вы не можете отвечать на сообщения
Вы не можете редактировать свои сообщения
Вы не можете удалять свои сообщения
Вы не можете добавлять вложения

Перейти:  
Для Мосгорсуда, Роскомнадзора и рекламодателей: mosgorsud-torrent[собачка]yandex.ru
 Вход
ppkBB3cker v.2 © 2008-2014 @ PPK
[ Time : 0.052s | 18 Queries | GZIP : Off ]

cron