img image001 image001 image001 image001 image001 image001 image001 image001 image001 image001 image001 image001 image001 image001 image001 image001
Planets Sun Sun Sun
Статистика раздачи
Автор: PriZraK | Размер: 1.83 ГБ | Добавлен: 12 фев 2018
Раздают: 0    Качают: 0
Скачать торрент
Скачать торрент
Описание торрента

СообщениеДобавлено: 12 фев 2018 

Кобаяши и её горничная-дракон / Kobayashi-san Chi no Maid Dragon



Жанр: аниме, мультфильм, комедия, фэнтези
Продолжительность: ТВ (13 эп.), 25 мин.
Рейтинг World-art: 8.0 из 10
Рейтинг IMDb: 7.7 из 10
Рейтинг КиноПоиск.RU: 7.4 из 10
Рейтинг рейтинг MPAA: PG

Перевод: Многоголосый, закадровый
Озвучивание: BalFor & Торгиль & Влад Дуров & Cuba77 & Demetra & Esther [AniDub]

Страна: Япония
Режиссер: Такэмото Ясухиро
Студия: Kyoto Animation & Animation Do
Формат: HDRip, MKV, H.265, AC3
Год выпуска: 2017

В главных ролях: Кобаяши, Тору, Канна Камуй
Роли озвучивали: Муцуми Тамура, Юки Кувахара, Мария Наганава

Описание: Кобаяши — одинокая офисная работница, которая каждый вечер «отмечает» окончание рабочих будней в разных забегаловках. Одним таким вечером Кобаяши встречает раненую дракониху по имени Тору, которой, оказав помощь, на пьяную голову предлагает остаться жить у неё. Однако, дракониха была трезва, как стёклышко, и, к великому сожалению Кобаяши, всё прекрасно помнила, и решила стать горничной, чтобы отплатить Кобаяши за своё спасение. Тору безответно влюблена в свою хозяйку и стремится любыми способами услужить и помочь Кобаяши во всём, что требуется, и не требуется. Вслед за ней приходит Канна, поначалу желавшая просто вернуть мятежную дракониху обратно, но от бессилия остается вместе с ней, да и в придачу остальные их друзья и знакомые драконы также прибывают в этот мир и пробуют ужиться в нём по их примеру.

Хардсаб: отсутствует
Субтитры: отсутствуют
Видео: 1280x720 (16:9), 23.976 fps, HEVC (x265) @Main, ~ 787 kbps avg, ~ 0.036 bit/pixel, 8 bits
Аудио: AC-3, 44.1 KHz, 2 ch, (Front: L R), ~192 kbps avg

Общее
Уникальный идентификатор : 284187019055604829605535149594569842414 (0xD5CC6DD1AB1226BF8B1B683B857B9EEE)
Полное имя : F:\Торрент\Файлы\Kobayashi-san_Chi-no-Maid-Dragon_01-13_720p_H265\Kobayashi-san Chi no Maid Dragon 01 720p H265.mkv
Формат : Matroska
Версия формата : Version 4 / Version 2
Размер файла : 180 Мбайт
Продолжительность : 25 м.
Общий поток : 999 Кбит/сек
Программа кодирования : Lavf57.41.100
Библиотека кодирования : Lavf57.41.100 / Lavf57.41.100

Видео
Идентификатор : 1
Формат : HEVC
Формат/Информация : High Efficiency Video Coding
Профиль формата : @Main
Идентификатор кодека : V_MPEGH/ISO/HEVC
Продолжительность : 25 м.
Битрейт : 787 Кбит/сек
Ширина : 1280 пикселей
Высота : 720 пикселей
Соотношение сторон : 16:9
Режим частоты кадров : Постоянный
Частота кадров : 23,976 (23976/1000) кадра/сек
Цветовое пространство : YUV
Субдискретизация насыщенности : 4:2:0
Битовая глубина : 8 бит
Бит/(Пиксели*Кадры) : 0.036
Размер потока : 142 Мбайт (79%)
Библиотека кодирования : x265 1.9:[Windows][GCC 4.9.3][32 bit] 8bit
Настройки программы : wpp / ctu=64 / min-cu-size=8 / max-tu-size=32 / tu-intra-depth=1 / tu-inter-depth=1 / me=1 / subme=2 / merange=57 / no-rect / no-amp / max-merge=2 / temporal-mvp / no-early-skip / rdpenalty=0 / no-tskip / no-tskip-fast / strong-intra-smoothing / no-lossless / no-cu-lossless / no-constrained-intra / no-fast-intra / open-gop / no-temporal-layers / interlace=0 / keyint=250 / min-keyint=23 / scenecut=40 / rc-lookahead=20 / lookahead-slices=4 / bframes=4 / bframe-bias=0 / b-adapt=2 / ref=3 / limit-refs=3 / no-limit-modes / weightp / no-weightb / aq-mode=1 / qg-size=32 / aq-strength=1.00 / cbqpoffs=0 / crqpoffs=0 / rd=3 / psy-rd=2.00 / rdoq-level=0 / psy-rdoq=0.00 / signhide / deblock / sao / no-sao-non-deblock / b-pyramid / cutree / no-intra-refresh / rc=crf / crf=24.0 / qcomp=0.60 / qpmin=0 / qpmax=51 / qpstep=4 / ipratio=1.40 / pbratio=1.30
Default : Нет
Forced : Нет
Statistics Tags Issue : mkvmerge v14.0.0 ('Flow') 64bit 2017-11-02 14:38:11 / Lavf57.41.100
FromStats_BitRate : 3993358
FromStats_Duration : 00:25:11.512000000
FromStats_FrameCount : 36240
FromStats_StreamSize : 754500120

Аудио
Идентификатор : 2
Формат : AC-3
Формат/Информация : Audio Coding 3
Расширение режима : CM (complete main)
Параметр Endianness формата : Big
Идентификатор кодека : A_AC3
Продолжительность : 25 м.
Вид битрейта : Постоянный
Битрейт : 192 Кбит/сек
Каналы : 2 канала
Расположение каналов : Front: L R
Частота : 48,0 КГц
Частота кадров : 31,250 кадров/сек (1536 spf)
Метод сжатия : С потерями
Размер потока : 34,6 Мбайт (19%)
Язык : Russian
Default : Да
Forced : Нет
Statistics Tags Issue : mkvmerge v14.0.0 ('Flow') 64bit 2017-11-02 14:38:11 / Lavf57.41.100
FromStats_BitRate : 192000
FromStats_Duration : 00:25:11.520000000
FromStats_FrameCount : 47235
FromStats_StreamSize : 36276480





   Похожие торренты   Торрент   Размер 
В этой теме нет новых непрочитанных сообщений. Кобаяши и Дракон-горничная / Kobayashi-san Chi no Maid Dragon (Такэмото Ясухиро) [JWA Project MVO] [TV] [13 из 13] [RAW] [RUS] [2017, повседневность, сэйнэн, седзё-ай, фэнтези, комедия, HDTVRip] [720p]

12 | 0

8.75 ГБ

В этой теме нет новых непрочитанных сообщений. Дракон-горничная Кобаяши-сан / Kobayashi-san Chi no Maid Dragon [01-05 из 12] (2017) HDTVRip 720p | SEKAI PROJECT

3 | 0

1.63 ГБ

В этой теме нет новых непрочитанных сообщений. Дракон-горничная Кобаяши-сан / Kobayashi-san Chi no Maid Dragon [01-02 из 12] (2017) HDTVRip 720p | SEKAI PROJECT

0 | 0

817.05 МБ

В этой теме нет новых непрочитанных сообщений. Дракон-горничная Кобаяши-сан / Kobayashi-san Chi no Maid Dragon [01 из 12] (2017) HDTVRip 720p | SEKAI PROJECT

0 | 0

332.67 МБ

В этой теме нет новых непрочитанных сообщений. Дракон-горничная Кобаяши-сан / Kobayashi-san Chi no Maid Dragon [01-04 из 12] (2017) HDTVRip 720p | SEKAI PROJECT

0 | 0

1.3 ГБ

В этой теме нет новых непрочитанных сообщений. Дракон-горничная Кобаяши-сан / Kobayashi-san Chi no Maid Dragon [01-03 из 12] (2017) HDTVRip 720p | SEKAI PROJECT

0 | 0

998.81 МБ

В этой теме нет новых непрочитанных сообщений. Дракон-горничная Кобаяши-сан / Kobayashi-san Chi no Maid Dragon [01-02 из 12] (2017) HDTVRip 720p | SEKAI PROJECT

0 | 0

665.41 МБ




Вы не можете начинать темы
Вы не можете отвечать на сообщения
Вы не можете редактировать свои сообщения
Вы не можете удалять свои сообщения
Вы не можете добавлять вложения

Перейти:  
Для Мосгорсуда, Роскомнадзора и рекламодателей: mosgorsud-torrent[собачка]yandex.ru
 Вход
ppkBB3cker v.2 © 2008-2014 @ PPK
[ Time : 0.069s | 18 Queries | GZIP : Off ]

cron