img image001 image001 image001 image001 image001 image001 image001 image001 image001 image001 image001 image001 image001 image001 image001
Planets Sun Sun Sun
Статистика раздачи
Автор: PriZraK | Размер: 2.34 ГБ | Добавлен: 12 фев 2018
Раздают: 7    Качают: 0
Скачать торрент
Скачать торрент
Описание торрента

СообщениеДобавлено: 12 фев 2018 

Моя первая гяру / Hajimete no Gal


Перевод: Любительский (трехголосый)
Субтитры: русские (SRT, ASS внешние)
Хардсаб: отсутствует
Формат: HDTVRip, AVI, XviD, AC3
Страна: Япония
Режиссер: Фурукава Хироюки
Жанр: комедия, романтика, этти
Продолжительность: ТВ (10 эп.), 25 мин.
Год выпуска: 2017
Озвучка: gobr & Daelit & Lizaveta
Перевод: Nippon Tavern (01) Octupus (02-10)

Студия:

Релиз от:

Описание: Жизнь в старшей школе должна была принести какие-то изменения, но прошел уже год, а для Джуничи и его друзей-отаку все осталось по-старому. И вот, после очередной глупости друзей, вызванной отчаянным положением, главному герою приходится признаться в любви девушке, с которой у него ничего общего.

Рейтинг на World-art: в данный момент
Рейтинг на aniDB:8.48 из 10

Видео: 704x396 (1.78:1), 23.976 fps, XviD build 64 ~2444 kbps avg, 0.36 bit/pixel
Аудио 1: Русский 48 kHz, AC3 Dolby Digital, 2/0 (L,R) ch, ~192 kbps avg [gobr & Daelit & Lizaveta]
Аудио 2: Японский 48 kHz, AC3 Dolby Digital, 2/0 (L,R) ch, ~192 kbps avg [Оригинал]
Общее
Полное имя : E:\HWP\SHIZA\Hajimete no Gal [HWP]\Hajimete no Gal 01.avi
Формат : AVI
Формат/Информация : Audio Video Interleave
Размер файла : 240 Мбайт
Продолжительность : 24 м. 0 с.
Общий поток : 1396 Кбит/сек
Программа кодирования : VirtualDubModRus 1.5.10.2 (build 2540/release)
Библиотека кодирования : VirtualDubMod build 2540/release

Видео
Идентификатор : 0
Формат : MPEG-4 Visual
Профиль формата : Advanced [email protected]
Параметр BVOP формата : 2
Параметр QPel формата : Нет
Параметр GMC формата : Без точки перехода
Параметр матрицы формата : Default (H.263)
Идентификатор кодека : XVID
Идентификатор кодека/Подсказка : XviD
Продолжительность : 24 м. 0 с.
Битрейт : 998 Кбит/сек
Ширина : 704 пикселя
Высота : 396 пикселей
Соотношение сторон : 16:9
Частота кадров : 23,976 (23976/1000) кадра/сек
Цветовое пространство : YUV
Субдискретизация насыщенности : 4:2:0
Битовая глубина : 8 бит
Тип развёртки : Прогрессивная
Метод сжатия : С потерями
Бит/(Пиксели*Кадры) : 0.149
Размер потока : 171 Мбайт (72%)
Библиотека кодирования : XviD 64

Аудио #1
Идентификатор : 1
Формат : AC-3
Формат/Информация : Audio Coding 3
Параметр Endianness формата : Big
Идентификатор кодека : 2000
Продолжительность : 24 м. 0 с.
Вид битрейта : Постоянный
Битрейт : 192 Кбит/сек
Каналы : 2 канала
Расположение каналов : Front: L R
Частота : 48,0 КГц
Частота кадров : 31,250 кадров/сек (1536 SPF)
Битовая глубина : 16 бит
Метод сжатия : С потерями
Размер потока : 33,0 Мбайт (14%)
Выравнивание : Соединение по промежуткам
Продолжительность промежутка : 42 мс. (1,00 видеокадр)
Время предзагрузки промежутка : 512 мс.
Заголовок : gobr & Daelit & Lizaveta
ServiceKind/String : Complete Main

Аудио #2
Идентификатор : 2
Формат : AC-3
Формат/Информация : Audio Coding 3
Параметр Endianness формата : Big
Идентификатор кодека : 2000
Продолжительность : 24 м. 0 с.
Вид битрейта : Постоянный
Битрейт : 192 Кбит/сек
Каналы : 2 канала
Расположение каналов : Front: L R
Частота : 48,0 КГц
Частота кадров : 31,250 кадров/сек (1536 SPF)
Битовая глубина : 16 бит
Метод сжатия : С потерями
Размер потока : 33,0 Мбайт (14%)
Выравнивание : Соединение по промежуткам
Продолжительность промежутка : 42 мс. (1,00 видеокадр)
Время предзагрузки промежутка : 512 мс.
ServiceKind/String : Complete Main


01. Моё первое выпрашивание.
02. Моё первое караоке.
03. Моя первая загорелая гяру.
04. Моя первая отличница!
05. Моя первая недо-гяру!
06. Мой первый раз у Яме-сан дома
07. Моя первая работа.
08. Моя первая пляжная сходка.
09. Моё первое сражение.
10. Моя первая любовь.








Внимание! Раздача ведётся путём добавления новых серий; при каждом добавлении создается новый торрент. Чтобы начать докачку новой серии, пользователям необходимо сделать следующее:
(1) остановить скачивание,
(2) удалить старый торрент у себя из клиента (старые серии удалять не надо),
(3) скачать новый торрент и запустить его у себя в клиенте вместо старого, при этом указать клиенту путь в старую папку куда и должно происходить скачивание новых серий.

Ваш клиент при этом должен произвести хеширование (проверку) старой папки (если не производит сам - помогите ему сделать это), и будет докачивать только те серии которых у вас ещё нет. Старые серии при этом не удаляются, а продолжают раздаваться!

Если вы уже удалили старые серии, то предотвратить повторную закачку старых серий можно, отжав галочку в соответствующих местах при запуске нового торрента. По возможности, желательно не удалять старые серии как можно дольше чтобы релизёр не столько продолжал раздавать старые серии, а смог сконцентрироваться на новых.



HWP - проигрывается на бытовых плеерах



   Похожие торренты   Торрент   Размер 
В этой теме нет новых непрочитанных сообщений. Моя первая гяру / Hajimete no Gal (Фурукава Хироюки) [TV] [03 из 10] [RAW] [RUS+JAP+SUB] [2017, комедия, романтика, этти, HDTVRip] [HWP]

4 | 0

1.34 ГБ

В этой теме нет новых непрочитанных сообщений. Моя первая гяру / Hajimete no Gal (Фурукава Хироюки) [TV] [02 из 10] [RAW] [RUS+JAP+SUB] [2017, комедия, романтика, этти, HDTVRip] [HWP]

0 | 2

960.8 МБ

В этой теме нет новых непрочитанных сообщений. Моя первая гяру / Hajimete no Gal [01 из 10] (2017) HDTVRip 720p | L

9 | 4

335.3 МБ

В этой теме нет новых непрочитанных сообщений. Моя первая гяру / Hajimete no Gal [01-08 из 10] (2017) HDTVRip 720p | L

73 | 17

2.82 ГБ

В этой теме нет новых непрочитанных сообщений. Кулинарная битва Сомы - Второе Блюдо / Shokugeki no Souma - Ni no Sara (Цукуда Юто) [Mustadio & Crosseria] [TV] [1-13 из 13] [RAW] [RUS(int)+JAP+SUB] [2016 г, комедия, сёнэн, этти, HDTVRip] [720p]

6 | 4

6.62 ГБ

В этой теме нет новых непрочитанных сообщений. Антимагическая академия: 35-е экспериментальное подразделение / Taimadou Gakuen 35 Shiken Shoutai [I.D.A] (Кавамура Томоюки) [TV-1] [9 из 12] [RAW] [RUS] [2015, Экшен, Фэнтези, Романтика, Этти, WEBRip] [720p]

9 | 3

6.48 ГБ

В этой теме нет новых непрочитанных сообщений. На самом деле я... / Jitsu wa Watashi wa / Actually, I Am... (Ямамото Ясутака) [TV] [1-13 из 13] [RAW] [RUS] [2015, комедия, романтика, HDTVRip] [720p]

20 | 12

3.42 ГБ




Вы не можете начинать темы
Вы не можете отвечать на сообщения
Вы не можете редактировать свои сообщения
Вы не можете удалять свои сообщения
Вы не можете добавлять вложения

Перейти:  
Для Мосгорсуда, Роскомнадзора и рекламодателей: mosgorsud-torrent[собачка]yandex.ru
 Вход
ppkBB3cker v.2 © 2008-2014 @ PPK
[ Time : 0.057s | 17 Queries | GZIP : Off ]

cron