img image001 image001 image001 image001 image001 image001 image001 image001 image001 image001 image001 image001 image001 image001 image001 image001
Planets Sun Sun Sun
Статистика раздачи
Автор: PriZraK | Размер: 2.57 ГБ | Добавлен: 12 фев 2018
Раздают: 12    Качают: 0
Скачать торрент
Скачать торрент
Описание торрента

СообщениеДобавлено: 12 фев 2018 

Воспроизведение жизни и смерти / Shengsi Huifang

Перевод: Любительский (двухголосый)
Субтитры: Китайские (вшитые)
Хардсаб: Китайский
Формат: WEBRip, MP4, H.264, AAC
Страна: Китай
Жанр: анимация, фильм действия, эротика
Продолжительность: ТВ (20 эп.), 20 мин.
Год выпуска: 2016
Озвучка: Demetra, Cuba77

Описание: Вэй ничего не помнит до поступления в колледж, его образ жизни весьма фриволен, за это его и выгоняют из общежития. В поисках заработка, он попадает на остров в качестве экскурсионного гида. Но вокруг него начинают умирать люди...Как все это связано с ним? Кем он был в прошлом? И почему именно он?



Видео: 1280x720р (16:9), 24.871fps, AVC (x264) , ~ 1622 kbps avg, 0.071 bit/pixel
Аудио: 48.0 kHz, AAC, (Front: L R), 2 ch ~ 192 Kbps avg

General
Complete name : D:\[AniDub]_Life_and_death_Playback\[AniDub]_Playback_[01].mp4
Format : MPEG-4
Format profile : Base Media
Codec ID : isom
File size : 269 MiB
Duration : 20mn 44s
Overall bit rate mode : Variable
Overall bit rate : 1 814 Kbps
Encoded date : UTC 2016-10-20 01:31:15
Tagged date : UTC 2016-10-20 01:31:15

Video
ID : 1
Format : AVC
Format/Info : Advanced Video Codec
Format profile :
Format settings, CABAC : Yes
Format settings, ReFrames : 1 frame
Codec ID : avc1
Codec ID/Info : Advanced Video Coding
Duration : 20mn 44s
Bit rate : 1 622 Kbps
Maximum bit rate : 9 292 Kbps
Width : 1 280 pixels
Height : 720 pixels
Display aspect ratio : 16:9
Frame rate mode : Variable
Frame rate : 24.871 fps
Minimum frame rate : 8.333 fps
Maximum frame rate : 25.000 fps
Color space : YUV
Chroma subsampling : 4:2:0
Bit depth : 8 bits
Scan type : Progressive
Bits/(Pixel*Frame) : 0.071
Stream size : 241 MiB (89%)
Tagged date : UTC 2016-10-20 01:31:52
Color primaries : BT.709
Transfer characteristics : BT.709
Matrix coefficients : BT.709
Color range : Limited

Audio
ID : 2
Format : AAC
Format/Info : Advanced Audio Codec
Format profile : LC
Codec ID : 40
Duration : 20mn 44s
Bit rate mode : Variable
Bit rate : 192 Kbps
Maximum bit rate : 201 Kbps
Channel(s) : 2 channels
Channel positions : Front: L R
Sampling rate : 48.0 KHz
Compression mode : Lossy
Stream size : 28.1 MiB (10%)
Language : English
Encoded date : UTC 2016-10-20 00:38:10
Tagged date : UTC 2016-10-20 01:31:52

Внимание! Раздача ведётся путём добавления новых серий; при каждом добавлении создётся новый торрент. Чтобы начать докачку новой серии, пользователям необходимо сделать следующее:
(1) остановить скачивание,
(2) удалить старый торрент у себя из клиента (старые серии удалять не надо),
(3) скачать новый торрент и запустить его у себя в клиенте вместо старого, при этом указать клиенту путь в старую папку куда и должно происходить скачивание новых серий.

Ваш клиент при этом должен произвести хеширование (проверку) старой папки (если не производит сам - помогите ему сделать это), и будет докачивать только те серии которых у вас ещё нет. Старые серии при этом не удаляются, а продолжают раздаваться!

Eсли вы уже удалили старые серии, то предотвратить повторную закачку старых серий можно, отжав галочку в соответсвующих местах при запуске нового торрента. По возможности, желательно не удалять старые серии как можно дольше чтобы релизёр не столько продолжал раздавать старые серии, а смог сконцентрироваться на новых.











   Похожие торренты   Торрент   Размер 
В этой теме нет новых непрочитанных сообщений. Наш мультяшный президент, 1 сезон 1-2 серии из 10 / Our Cartoon President [IdeaFilm] (Стивен Колберт, Мэтт Лаппин) [2018, комедия, сатира, анимация, WEBRip 720p] MVO

3 | 1

1.84 ГБ

В этой теме нет новых непрочитанных сообщений. Наш мультяшный президент, 1 сезон 1-3 серии из 10 / Our Cartoon President [IdeaFilm] (Стивен Колберт, Мэтт Лаппин) [2018, комедия, сатира, анимация, WEBRip 720p] MVO

1 | 1

2.62 ГБ

В этой теме нет новых непрочитанных сообщений. Станция - Восток. На пороге жизни (2016) WEBRip 720p от Files-х

33 | 1

808.15 МБ

В этой теме нет новых непрочитанных сообщений. Дворянство: Пробуждение / Noblesse: Awakening ONA [Хардсаб] (2016) HDTVRip 720р от NK Studio | L

67 | 10

2.01 ГБ

В этой теме нет новых непрочитанных сообщений. В комнате смерти / Soba smrti (2016) WEBRip 720p | L

27 | 2

445.89 МБ

В этой теме нет новых непрочитанных сообщений. Девочки Гилмор: Год из жизни / Gilmore Girls: A Year in the Life [S01] (2016) WEBRip 720p | NewStudio

0 | 3

13.46 ГБ

В этой теме нет новых непрочитанных сообщений. Лаборатория смерти. Апокалипсис по-японски (2016) WEBRip 720p от Files-x

8 | 2

371.4 МБ




Вы не можете начинать темы
Вы не можете отвечать на сообщения
Вы не можете редактировать свои сообщения
Вы не можете удалять свои сообщения
Вы не можете добавлять вложения

Перейти:  
Для Мосгорсуда, Роскомнадзора и рекламодателей: mosgorsud-torrent[собачка]yandex.ru
 Вход
ppkBB3cker v.2 © 2008-2014 @ PPK
[ Time : 3.882s | 19 Queries | GZIP : Off ]

cron