img image001 image001 image001 image001 image001 image001 image001 image001 image001 image001 image001 image001 image001 image001 image001
Planets Sun Sun Sun
Статистика раздачи
Автор: PriZraK | Размер: 684.08 МБ | Добавлен: 12 фев 2018
Раздают: 0    Качают: 0
Скачать торрент
Скачать торрент
Описание торрента

СообщениеДобавлено: 12 фев 2018 

Пердящий Горо / Onara Gorou / おなら吾郎

Перевод: Любительский (одноголосый)
Субтитры: отсутствуют
Хардсаб: отсутствует
Формат: HDTVRip, MP4, H.264, AAC
Страна: Япония
Режиссер: Танигути Такаси
Жанр: комедия
Продолжительность: ТВ (13 эп.), 3 мин.
Год выпуска: 2016
Озвучка: 9й Неизвестный

Студия:

Описание: Мистер Горо — самый замечательный пук из всех возможных. Он поможет решить все Ваши проблемы всеми возможными путями... которыми способен решать пук.



Видео: 1280x720р (16:9), 29.970 fps, AVC (x264) , ~ 1001 kbps avg, 0.036 bit/pixel
Аудио: 48.0 kHz, AAC, (Front: L R), 2 ch ~ 255 Kbps avg

General
Complete name : E:\DOWNLOADS\[AniDub]_Onara_Gorou_[720p]_[9th_Unknown]\[AniDub]_Onara_Gorou_[01]_[720p_x264_Aac]_[9th_Unknown].mp4
Format : MPEG-4
Format profile : Base Media
Codec ID : isom
File size : 27.1 MiB
Duration : 3mn 0s
Overall bit rate mode : Variable
Overall bit rate : 1 260 Kbps
Encoded date : UTC 2016-07-09 20:38:53
Tagged date : UTC 2016-07-09 20:38:53

Video
ID : 1
Format : AVC
Format/Info : Advanced Video Codec
Format profile :
Format settings, CABAC : Yes
Format settings, ReFrames : 3 frames
Codec ID : avc1
Codec ID/Info : Advanced Video Coding
Duration : 3mn 0s
Duration_FirstFrame : -33ms
Bit rate : 1 001 Kbps
Maximum bit rate : 3 356 Kbps
Width : 1 280 pixels
Height : 720 pixels
Display aspect ratio : 16:9
Frame rate mode : Variable
Frame rate : 29.970 fps
Minimum frame rate : 29.970 fps
Maximum frame rate : 29.990 fps
Color space : YUV
Chroma subsampling : 4:2:0
Bit depth : 8 bits
Scan type : Progressive
Bits/(Pixel*Frame) : 0.036
Stream size : 21.5 MiB (79%)
Tagged date : UTC 2016-07-09 20:38:53
Color primaries : BT.709
Transfer characteristics : BT.709
Matrix coefficients : BT.709
Color range : Limited

Audio
ID : 2
Format : AAC
Format/Info : Advanced Audio Codec
Format profile : LC
Codec ID : 40
Duration : 3mn 0s
Bit rate mode : Variable
Bit rate : 255 Kbps
Maximum bit rate : 287 Kbps
Channel(s) : 2 channels
Channel positions : Front: L R
Sampling rate : 48.0 KHz
Compression mode : Lossy
Stream size : 5.48 MiB (20%)
Encoded date : UTC 2016-07-09 20:38:40
Tagged date : UTC 2016-07-09 20:38:53











   Похожие торренты   Торрент   Размер 
В этой теме нет новых непрочитанных сообщений. А.К.Т.И.В. Рэйд / Active Raid (Танигути Горо) [TV-1] [1 из 24] [RAW] [RUS] [2016 г., приключения, HDTVRip] [720p]

6 | 1

436.18 МБ

В этой теме нет новых непрочитанных сообщений. Карикатурные Упыри Сенгоку / Sengoku Choujuu Giga (Сумида Такаси) [TV] [26 из 26] [RAW] [RUS] [2016, приключения, комедия, HDTVRip] [720p]

2 | 0

1.07 ГБ

В этой теме нет новых непрочитанных сообщений. Тяжелый Объект / Heavy Object (Ватанабэ Такаси) [TV-1] [1-14 из 24] [Ancord & Jade & Fuurou & Nika Lenina] [RAW] [RUS] [2015-2016 г., приключения, HDTVRip] [720p]

1 | 3

6.41 ГБ

В этой теме нет новых непрочитанных сообщений. Дораэмон: Останься со мной / Stand by Me Doraemon (Тони Оливер, Такаси Ямадзаки, Руиши Яаги) [2014, аниме, приключения, комедия, мультфильм , HDRip] DVO

56 | 9

1.38 ГБ

В этой теме нет новых непрочитанных сообщений. Дораэмон: Останься со мной / Stand by Me Doraemon (Тони Оливер, Руиши Яаги, Такаси Ямадзаки) [2014, аниме, приключения, комедия, мультфильм , WEBRip] DVO

34 | 3

1.45 ГБ

В этой теме нет новых непрочитанных сообщений. Ария по прозвищу Алая Пуля / Hidan no Aria AA (Кавабата Такаси) [TV-2] [1-12 из 12] [AnimeVost] [RAW] [RUS] [2015 г., приключения, HDTVRip] [720p]

42 | 11

5.92 ГБ

В этой теме нет новых непрочитанных сообщений. Заморозка / Freezing (Ватанабэ Такаси) [TV] [12 из 12] [без хардсаба] [RUS(ext), JAP+SUB] [Special] [6 из 6] (2011) BDRip 720p | L

64 | 8

11.8 ГБ




Вы не можете начинать темы
Вы не можете отвечать на сообщения
Вы не можете редактировать свои сообщения
Вы не можете удалять свои сообщения
Вы не можете добавлять вложения

Перейти:  
Для Мосгорсуда, Роскомнадзора и рекламодателей: mosgorsud-torrent[собачка]yandex.ru
 Вход
ppkBB3cker v.2 © 2008-2014 @ PPK
[ Time : 1.422s | 18 Queries | GZIP : Off ]

cron