img image001 image001 image001 image001 image001 image001 image001 image001 image001 image001 image001 image001 image001 image001 image001 image001
Planets Sun Sun Sun
Статистика раздачи
Автор: Снежана | Размер: 14.16 ГБ | Добавлен: 10 фев 2018
Раздают: 4    Качают: 1
Скачать торрент
Скачать торрент
Описание торрента

СообщениеДобавлено: 10 фев 2018 

Название: Scooter: Live in Hamburg [Bonus BD: Video Collection]
Год выхода: 2010
Жанр: Techno, House, Hardstyle


Страна: Германия
Студия: Edel Records
Продолжительность: 02:46:07


Формат: MKV
Качество: BDRemux 1080i
Видео: MPEG-2 Video / 11947 kbps / 1080i / 25 fps / 16:9
Аудио: English / Dolby Digital Audio / 2.0 / 48 kHz / 256 kbps


Scooter — немецкий музыкальный коллектив, ориентированный на танцевальную и энергичную музыку. Группа известна во многих странах мира, в том числе благодаря англоязычным текстам (за единичными исключениями) и названиям песен и музыкальных композиций. Наряду с такими коллективами, как Tangerine Dream, Kraftwerk, Modern Talking, Rammstein, Scorpions, Boney M., Scooter является одной из самых успешных музыкальных групп в истории Германии, что подтверждается более чем 25 миллионами продаж альбомов и синглов по всему миру, а также более чем 80 золотыми и платиновыми записями альбомов и синглов. 30 апреля 2008 года альбом «Jumping All Over The World», изданный в Англии, занял первое место, потеснив при этом Мадонну с альбомом «Hard Candy», и в начале четвёртой недели продаж получил «золото». 22 августа 2008 года «Jumping All Over The World» достиг платинового статуса в Великобритании. В Германии альбом также получил статус «золотого». В 2002 году сингл «Nessaja» впервые в истории группы занял первое место в немецком национальном сингл-чарте, опередив при этом первый хит Scooter «Hyper Hyper» (второе место в 1994 году), а сингл «The Logical Song», который был выпущен в Великобритании в том же году, занял второе место в британском чарте и стал платиновым в нескольких странах, что наряду с попаданием сингла «Fire» в 1997 году на 30 место американского чарта Billboard (Hot Dance Music/Club Play chart) является одним из самых больших достижений группы на сегодняшний день. В 2009 году сингл Scooter «Ti Sento» c альбома «Under The Radar Over The Top» в 23-й раз попал в Top-10 германского музыкального чарта. С момента основания этого чарта в 1956 году ни один немецкий коллектив не имел столько попаданий в первую десятку. На втором месте с 13-ю попаданиями располагаются Modern Talking и Ксавьер Найду.
01. Stuck On Replay
02. The Sound Above My Hair
03. Ti Sento
04. Jadore Hardcore
05. Beweg Dein Arsch
06. Jump That Rock (Whatever You Want)
07. I'm Lonely
08. Jumping All Over The World
09. And No Matches
10. The Question Is What Is The Question?
11. Lass Uns Tanzen
12. Behind The Cow
13. Apache Rocks The Bottom!
14. Hello! (Good To Be Back)
15. Suavemente
16. One (Always Hardcore)
17. Shake That!
18. Jigga Jigga!
19. Maria (I Like It Loud)
20. The Night
21. Weekend!
22. Nessaja
23. The Logical Song
24. Aiii Shot The DJ
25. Posse (I Need You On The Floor)
26. Shes The Sun
27. Im Your Pusher
28. Fuck The Millennium
29. Faster Harder Scooter
30. Call Me Mañana
31. I Was Made For Lovin You
32. We Are The Greatest
33. How Much Is The Fish?
34. No Fate
35. The Age Of Love
36. Fire
37. Break It Up
38. I'm Raving
39. Rebel Yell
40. Let Me Be Your Valentine
41. Back In The U.K.
42. Endless Summer
43. Friends
44. Move Your Ass!
45. Hyper Hyper



Format : Matroska
Format version : Version 2
File size : 14.2 GiB
Duration : 2 h 46 min
Overall bit rate mode : Variable
Overall bit rate : 12.2 Mb/s
Movie name : Scooter: Live in Hamburg [Bonus Disk: Video Collection] (2010) BDRemux 1080i
Encoded date : UTC 2018-02-09 15:59:19
Writing application : mkvmerge v4.9.1 ('Ich will') сборка от Jul 11 2011 23:53:15
Writing library : libebml v1.2.1 + libmatroska v1.1.1
Video
ID : 1
Format : MPEG Video
Format version : Version 2
Format profile : [email protected]
Format settings, BVOP : Yes
Format settings, Matrix : Custom
Format settings, GOP : Variable
Format settings, picture st : Frame
Codec ID : V_MPEG2
Codec ID/Info : MPEG 1 or 2 Video
Duration : 2 h 46 min
Bit rate mode : Variable
Bit rate : 11.7 Mb/s
Maximum bit rate : 32.0 Mb/s
Width : 1 920 pixels
Height : 1 080 pixels
Display aspect ratio : 16:9
Frame rate mode : Constant
Frame rate : 25.000 FPS
Standard : Component
Color space : YUV
Chroma subsampling : 4:2:0
Bit depth : 8 bits
Scan type : Interlaced
Scan order : Top Field First
Compression mode : Lossy
Bits/(Pixel*Frame) : 0.226
Time code of first frame : 00:00:00:00
Time code source : Group of pictures header
GOP, Open/Closed : Closed
Stream size : 13.6 GiB (96%)
Title : Scooter: Live in Hamburg [Bonus Disk: Video Collection] (2010)
Writing library : TMPGEnc XPress 4.6.3.267
Language : English
Default : Yes
Forced : No
Color primaries : BT.709
Transfer characteristics : BT.709
Matrix coefficients : BT.709
Audio
ID : 2
Format : AC-3
Format/Info : Audio Coding 3
Format settings, Endianness : Big
Codec ID : A_AC3
Duration : 2 h 46 min
Bit rate mode : Constant
Bit rate : 256 kb/s
Channel(s) : 2 channels
Channel positions : Front: L R
Sampling rate : 48.0 kHz
Frame rate : 31.250 FPS (1536 SPF)
Bit depth : 16 bits
Compression mode : Lossy
Stream size : 304 MiB (2%)
Title : Dolby Digital, 2.0, 256 kbps
Language : English
Service kind : Complete Main
Default : Yes
Forced : No
Menu
00:00:00.000 : :Chapter 01
00:00:00.040 : :Chapter 02
00:03:13.040 : :Chapter 03
00:06:51.679 : :Chapter 04
00:10:49.720 : :Chapter 05
00:14:38.120 : :Chapter 06
00:18:10.760 : :Chapter 07
00:21:37.000 : :Chapter 08
00:25:09.639 : :Chapter 09
00:29:06.280 : :Chapter 10
00:32:50.000 : :Chapter 11
00:36:41.520 : :Chapter 12
00:40:26.000 : :Chapter 13
00:44:02.240 : :Chapter 14
00:47:49.280 : :Chapter 15
00:51:22.520 : :Chapter 16
00:55:02.360 : :Chapter 17
00:58:58.040 : :Chapter 18
01:02:22.680 : :Chapter 19
01:06:22.520 : :Chapter 20
01:10:04.160 : :Chapter 21
01:13:45.800 : :Chapter 22
01:17:22.439 : :Chapter 23
01:20:50.880 : :Chapter 24
01:24:48.479 : :Chapter 25
01:28:19.719 : :Chapter 26
01:32:41.000 : :Chapter 27
01:36:42.639 : :Chapter 28
01:40:34.080 : :Chapter 29
01:44:44.360 : :Chapter 30
01:48:27.599 : :Chapter 31
01:51:58.639 : :Chapter 32
01:55:30.680 : :Chapter 33
01:58:56.160 : :Chapter 34
02:02:41.800 : :Chapter 35
02:06:24.360 : :Chapter 36
02:10:30.240 : :Chapter 37
02:14:00.800 : :Chapter 38
02:17:40.400 : :Chapter 39
02:21:14.640 : :Chapter 40
02:24:57.200 : :Chapter 41
02:28:45.400 : :Chapter 42
02:32:09.440 : :Chapter 43
02:35:31.600 : :Chapter 44
02:39:08.240 : :Chapter 45
02:42:34.320 : :Chapter 46
02:46:07.640 : :Chapter 47







   Похожие торренты   Торрент   Размер 
В этой теме нет новых непрочитанных сообщений. Scooter - Live in Hamburg (2010) BDRemux 1080i

5 | 0

17.17 ГБ

В этой теме нет новых непрочитанных сообщений. Концерт группы Scooter в Гамбурге! / Scooter - Live In Hamburg (2010) DVD 9

554 | 10

5.72 ГБ

В этой теме нет новых непрочитанных сообщений. Scooter - Live in Hamburg (2010) HDTVRip

6 | 51

2.79 ГБ

В этой теме нет новых непрочитанных сообщений. Scooter - Live In Hamburg (2010) BDRip 720p

208 | 4

4.37 ГБ

В этой теме нет новых непрочитанных сообщений. Scooter - Live in Hamburg (2010) HDRip от OpenSharing Team

0 | 3

1.44 ГБ

В этой теме нет новых непрочитанных сообщений. Scooter: Live in Hamburg (2010) BDRip 1080p Rip by Neofilm

22 | 14

6.4 ГБ

В этой теме нет новых непрочитанных сообщений. Scooter - Live at Uebel and Gefahrlich Hamburg (2014) WEB-DL 720p

229 | 44

1.86 ГБ




Вы не можете начинать темы
Вы не можете отвечать на сообщения
Вы не можете редактировать свои сообщения
Вы не можете удалять свои сообщения
Вы не можете добавлять вложения

Перейти:  
Для Мосгорсуда, Роскомнадзора и рекламодателей: mosgorsud-torrent[собачка]yandex.ru
 Вход
ppkBB3cker v.2 © 2008-2014 @ PPK
[ Time : 0.026s | 19 Queries | GZIP : Off ]

cron