img image001 image001 image001 image001 image001 image001 image001 image001 image001 image001 image001 image001 image001 image001 image001
Planets Sun Sun Sun
Статистика раздачи
Автор: Снежана | Размер: 17.17 ГБ | Добавлен: 10 фев 2018
Раздают: 6    Качают: 0
Скачать торрент
Скачать торрент
Описание торрента

СообщениеДобавлено: 10 фев 2018 

Название: Scooter: Live in Hamburg
Год выхода: 2010
Жанр: Techno, House, Hardstyle


Страна: Германия
Студия: Edel Records
Продолжительность: 01:35:51


Формат: MKV
Качество: BDRemux 1080i
Видео: MPEG-4 AVC Video / 24999 kbps / 1080i / 25 fps / 16:9
Аудио: English / Dolby Digital Audio / 5.1 / 48 kHz / 640 kbps


Scooter — немецкий музыкальный коллектив, ориентированный на танцевальную и энергичную музыку. Группа известна во многих странах мира, в том числе благодаря англоязычным текстам (за единичными исключениями) и названиям песен и музыкальных композиций. Наряду с такими коллективами, как Tangerine Dream, Kraftwerk, Modern Talking, Rammstein, Scorpions, Boney M., Scooter является одной из самых успешных музыкальных групп в истории Германии, что подтверждается более чем 25 миллионами продаж альбомов и синглов по всему миру, а также более чем 80 золотыми и платиновыми записями альбомов и синглов. 30 апреля 2008 года альбом «Jumping All Over The World», изданный в Англии, занял первое место, потеснив при этом Мадонну с альбомом «Hard Candy», и в начале четвёртой недели продаж получил «золото». 22 августа 2008 года «Jumping All Over The World» достиг платинового статуса в Великобритании. В Германии альбом также получил статус «золотого». В 2002 году сингл «Nessaja» впервые в истории группы занял первое место в немецком национальном сингл-чарте, опередив при этом первый хит Scooter «Hyper Hyper» (второе место в 1994 году), а сингл «The Logical Song», который был выпущен в Великобритании в том же году, занял второе место в британском чарте и стал платиновым в нескольких странах, что наряду с попаданием сингла «Fire» в 1997 году на 30 место американского чарта Billboard (Hot Dance Music/Club Play chart) является одним из самых больших достижений группы на сегодняшний день. В 2009 году сингл Scooter «Ti Sento» c альбома «Under The Radar Over The Top» в 23-й раз попал в Top-10 германского музыкального чарта. С момента основания этого чарта в 1956 году ни один немецкий коллектив не имел столько попаданий в первую десятку. На втором месте с 13-ю попаданиями располагаются Modern Talking и Ксавьер Найду.
01. Intro
02. J'adore Hardcore
03. Posse (I Need You On The Floor)
04. The Sound Above My Hair
05. Stuck On Replay
06. Jumping All Over The World
07. The Question Is What Is The Question?
08. Second Skin
09. Clic Clac / Scarborough Reloaded
10. Fire
11. Fuck The Millennium / Call Me Manana
12. Weekend!
13. Bit A Bad Boy
14. One (Always Hardcore)
15. Ti Sento
16. Jump That Rock (Whatever You Want)
17. Nessaja
18. How Much Is The Fish?
19. Maria (I Like It Loud)
20. Endless Summer / Hyper Hyper / Move Your Ass!



Format : Matroska
Format version : Version 2
File size : 17.2 GiB
Duration : 1 h 35 min
Overall bit rate mode : Variable
Overall bit rate : 25.6 Mb/s
Movie name : Scooter: Live in Hamburg (2010) BDRemux 1080i
Encoded date : UTC 2018-02-09 18:40:00
Writing application : mkvmerge v4.9.1 ('Ich will') сборка от Jul 11 2011 23:53:15
Writing library : libebml v1.2.1 + libmatroska v1.1.1
Video
ID : 1
Format : AVC
Format/Info : Advanced Video Codec
Format profile : [email protected]
Format settings, CABAC : Yes
Format settings, RefFrames : 4 frames
Format settings, GOP : M=3, N=18
Codec ID : V_MPEG4/ISO/AVC
Duration : 1 h 35 min
Bit rate mode : Variable
Bit rate : 24.5 Mb/s
Maximum bit rate : 35.0 Mb/s
Width : 1 920 pixels
Height : 1 080 pixels
Display aspect ratio : 16:9
Frame rate mode : Constant
Frame rate : 25.000 FPS
Standard : PAL
Color space : YUV
Chroma subsampling : 4:2:0
Bit depth : 8 bits
Scan type : Interlaced
Scan type, store method : Separated fields
Scan order : Top Field First
Bits/(Pixel*Frame) : 0.472
Stream size : 16.4 GiB (96%)
Title : Scooter: Live in Hamburg
Language : English
Default : Yes
Forced : No
Color range : Limited
Color primaries : BT.709
Transfer characteristics : BT.709
Matrix coefficients : BT.709
Audio
ID : 2
Format : AC-3
Format/Info : Audio Coding 3
Format settings, Endianness : Big
Codec ID : A_AC3
Duration : 1 h 35 min
Bit rate mode : Constant
Bit rate : 640 kb/s
Channel(s) : 6 channels
Channel positions : Front: L C R, Side: L R, LFE
Sampling rate : 48.0 kHz
Frame rate : 31.250 FPS (1536 SPF)
Bit depth : 16 bits
Compression mode : Lossy
Stream size : 439 MiB (2%)
Title : Dolby Digital, 5.1, 640 kbps
Language : English
Service kind : Complete Main
Default : Yes
Forced : No
Text
ID : 3
Format : PGS
Muxing mode : zlib
Codec ID : S_HDMV/PGS
Codec ID/Info : Picture based subtitle format used on BDs/HD-DVDs
Language : English
Default : No
Forced : No
Menu
00:00:00.000 : :Chapter 1
00:02:21.560 : :Chapter 2
00:06:36.480 : :Chapter 3
00:10:59.880 : :Chapter 4
00:15:15.120 : :Chapter 5
00:21:20.000 : :Chapter 6
00:25:39.800 : :Chapter 7
00:29:31.000 : :Chapter 8
00:35:32.000 : :Chapter 9
00:41:30.000 : :Chapter 10
00:45:35.640 : :Chapter 11
00:51:18.480 : :Chapter 12
00:55:14.520 : :Chapter 13
00:59:07.440 : :Chapter 14
01:03:42.160 : :Chapter 15
01:08:24.520 : :Chapter 16
01:12:54.240 : :Chapter 17
01:17:21.240 : :Chapter 18
01:21:56.560 : :Chapter 19
01:28:41.480 : :Chapter 20
01:35:51.080 : :Chapter 21






   Похожие торренты   Торрент   Размер 
В этой теме нет новых непрочитанных сообщений. Scooter: Live in Hamburg [Bonus BD: Video Collection] (2010) BDRemux 1080i

7 | 1

14.16 ГБ

В этой теме нет новых непрочитанных сообщений. Концерт группы Scooter в Гамбурге! / Scooter - Live In Hamburg (2010) DVD 9

554 | 10

5.72 ГБ

В этой теме нет новых непрочитанных сообщений. Scooter - Live in Hamburg (2010) HDTVRip

6 | 51

2.79 ГБ

В этой теме нет новых непрочитанных сообщений. Scooter - Live In Hamburg (2010) BDRip 720p

208 | 4

4.37 ГБ

В этой теме нет новых непрочитанных сообщений. Scooter: Live in Hamburg (2010) BDRip 1080p Rip by Neofilm

22 | 14

6.4 ГБ

В этой теме нет новых непрочитанных сообщений. Scooter - Live in Hamburg (2010) HDRip от OpenSharing Team

0 | 3

1.44 ГБ

В этой теме нет новых непрочитанных сообщений. Scooter - Live at Uebel and Gefahrlich Hamburg (2014) WEB-DL 720p

229 | 44

1.86 ГБ




Вы не можете начинать темы
Вы не можете отвечать на сообщения
Вы не можете редактировать свои сообщения
Вы не можете удалять свои сообщения
Вы не можете добавлять вложения

Перейти:  
Для Мосгорсуда, Роскомнадзора и рекламодателей: mosgorsud-torrent[собачка]yandex.ru
 Вход
ppkBB3cker v.2 © 2008-2014 @ PPK
[ Time : 0.067s | 19 Queries | GZIP : Off ]

cron